<?xml version="1.0" standalone="no"?>
<!DOCTYPE svg PUBLIC "-//W3C//DTD SVG 1.1//EN" "http://www.w3.org/Graphics/SVG/1.1/DTD/svg11.dtd" >
<svg xmlns="http://www.w3.org/2000/svg">
<metadata>Generated by IcoMoon</metadata>
<defs>
<font id="wpl_front" horiz-adv-x="1024">
<font-face units-per-em="1024" ascent="960" descent="-64" />
<missing-glyph horiz-adv-x="1024" />
<glyph unicode="&#x20;" horiz-adv-x="512" d="" />
<glyph unicode="&#xe000;" glyph-name="uniE000" d="M0-64h512v1024h-512v-1024zM320 832h128v-128h-128v128zM320 576h128v-128h-128v128zM320 320h128v-128h-128v128zM64 832h128v-128h-128v128zM64 576h128v-128h-128v128zM64 320h128v-128h-128v128zM576 640h448v-64h-448zM576-64h128v256h192v-256h128v576h-448z" />
<glyph unicode="&#xe001;" glyph-name="uniE001" d="M0 832v-832h1024v832h-1024zM960 64h-896v704h896v-704zM704 608c0-53.020 42.98-96 96-96s96 42.98 96 96c0 53.020-42.98 96-96 96s-96-42.98-96-96zM896 128h-768l192 512 256-320 128 96z" />
<glyph unicode="&#xe002;" glyph-name="uniE002" d="M896 960h-896v-1024h1024v896l-128 128zM512 832h128v-256h-128v256zM896 64h-768v768h64v-320h576v320h74.978l53.022-53.018v-714.982z" />
<glyph unicode="&#xe003;" glyph-name="uniE003" d="M622.826 257.264c-22.11 3.518-22.616 64.312-22.616 64.312s64.97 64.316 79.126 150.802c38.088 0 61.618 91.946 23.522 124.298 1.592 34.052 48.962 267.322-190.86 267.322s-192.45-233.27-190.864-267.322c-38.094-32.35-14.57-124.298 23.522-124.298 14.158-86.486 79.128-150.802 79.128-150.802s-0.504-60.794-22.616-64.312c-71.218-11.332-337.17-128.634-337.17-257.264h896c0 128.63-265.952 245.932-337.174 257.264z" />
<glyph unicode="&#xe004;" glyph-name="uniE004" d="M448 384v-416l-160 160-192-192-96 96 192 192-160 160zM1024 864l-192-192 160-160h-416v416l160-160 192 192z" />
<glyph unicode="&#xe005;" glyph-name="uniE005" d="M384 448h-320v128h320v128l192-192-192-192zM1024 960v-832l-384-192v192h-384v256h64v-192h320v576l256 128h-576v-256h-64v320z" />
<glyph unicode="&#xe006;" glyph-name="uniE006" d="M512 878.080c-237.526 0-430.080-192.552-430.080-430.080s192.552-430.080 430.080-430.080c237.528 0 430.080 192.552 430.080 430.080s-192.552 430.080-430.080 430.080zM510.086 820.736c204.8 0 370.822-166.024 370.822-370.822 0-56.672-12.73-110.366-35.462-158.404l-640.172 369.602c66.958 96.456 178.498 159.626 304.81 159.626zM510.086 79.090c-204.8 0-370.822 166.024-370.822 370.822 0 57.976 13.312 112.836 37.034 161.71l640.682-369.902c-66.712-98.154-179.274-162.63-306.896-162.63zM386.6 439.466c0-66.962 54.308-121.236 121.308-121.236 32.846 0 62.62 13.062 84.464 34.25l-202.092 116.678c-2.392-9.5-3.68-19.45-3.68-29.694zM772.576 604.374h-178.37v0.552l-22.090 22.188c-0.304 11.77-9.732 21.256-21.448 21.566l-0.032 0.024h-88.856c-12.118-0.050-21.902-9.908-21.966-22.078l-22.062-22.172v-0.082h-81.44l87.422-50.472c23.478 17.776 52.608 28.308 84.168 28.308 77.762 0 140.794-63.914 140.794-142.74 0-5.068-0.264-10.072-0.778-15.004l146.712-84.702v242.442c-0.002 12.242-9.874 22.168-22.058 22.168zM507.904 296.734c-77.754 0-140.79 63.91-140.79 142.734 0 13.834 1.978 27.19 5.6 39.838l-151.538 87.488v-272.74c0-12.236 9.878-22.16 22.056-22.16h488.726l-121.312 70.042c-25.684-27.802-62.206-45.2-102.742-45.2zM629.216 439.466c0 66.966-54.298 121.254-121.308 121.254-23.572 0-45.558-6.742-64.17-18.366l185.376-107.024c0.046 1.37 0.102 2.746 0.102 4.134z" />
<glyph unicode="&#xe007;" glyph-name="uniE007" d="M64 384h384v-384l-138.26 138.26-202-202-107.478 107.48 202 202zM821.74 245.74l202-202-107.48-107.48-202 202-138.26-138.26v384h384zM960 512h-384v384l138.26-138.26 202 202 107.48-107.48-202-202zM309.738 757.74l138.262 138.26v-384h-384l138.26 138.26-202 202 107.478 107.48z" />
<glyph unicode="&#xe008;" glyph-name="uniE008" d="M768 960h-576c-35.2 0-64-28.798-64-64v-896c0-35.2 28.798-64 64-64h576c35.2 0 64 28.8 64 64v896c0 35.202-28.8 64-64 64zM480-17.784c-27.492 0-49.784 22.29-49.784 49.784s22.29 49.784 49.784 49.784 49.784-22.29 49.784-49.784-22.29-49.784-49.784-49.784zM768 128h-576v704h576v-704z" />
<glyph unicode="&#xe009;" glyph-name="uniE009" d="M697.832 632.952l-64.952 64.922-324.81-324.74c-53.814-53.792-53.814-141.048 0-194.842 53.802-53.792 141.060-53.792 194.872 0l389.77 389.706c89.714 89.662 89.714 235.062 0 324.726-89.666 89.702-235.11 89.702-324.782 0l-409.23-409.178c-0.29-0.304-0.612-0.576-0.876-0.846-125.102-125.096-125.102-327.856 0-452.904 125.054-125.056 327.868-125.056 452.988 0 0.274 0.274 0.518 0.568 0.822 0.876l0.032-0.034 279.334 279.292-64.986 64.918-279.332-279.262c-0.298-0.268-0.566-0.568-0.846-0.842-89.074-89.058-233.98-89.058-323.076 0-89.062 89.042-89.062 233.922 0 322.978 0.304 0.304 0.604 0.582 0.89 0.846l-0.046 0.058 409.28 409.166c53.712 53.738 141.144 53.738 194.886 0 53.712-53.734 53.712-141.146 0-194.84l-389.774-389.698c-17.936-17.922-47.054-17.922-64.972 0-17.894 17.886-17.894 47.030 0 64.918l324.804 324.782z" />
<glyph unicode="&#xe00a;" glyph-name="uniE00A" d="M384 448h-320v128h320v128l192-192-192-192zM1024 960v-832l-384-192v192h-384v256h64v-192h320v576l256 128h-576v-256h-64v320z" />
<glyph unicode="&#xe00b;" glyph-name="uniE00B" d="M1024 765.582c-37.674-16.708-78.164-28.002-120.662-33.082 43.37 26 76.686 67.17 92.374 116.23-40.596-24.078-85.558-41.562-133.41-50.98-38.32 40.83-92.922 66.342-153.346 66.342-116.024 0-210.086-94.058-210.086-210.078 0-16.466 1.858-32.5 5.44-47.878-174.6 8.762-329.402 92.4-433.016 219.506-18.086-31.028-28.446-67.116-28.446-105.618 0-72.888 37.088-137.192 93.46-174.866-34.438 1.094-66.832 10.542-95.154 26.278-0.022-0.876-0.022-1.754-0.022-2.642 0-101.786 72.418-186.696 168.522-206-17.626-4.8-36.188-7.37-55.348-7.37-13.538 0-26.698 1.322-39.528 3.77 26.736-83.462 104.32-144.206 196.25-145.894-71.9-56.35-162.486-89.934-260.916-89.934-16.958 0-33.68 0.994-50.116 2.938 92.972-59.61 203.402-94.394 322.040-94.394 386.424 0 597.736 320.124 597.736 597.744 0 9.11-0.206 18.168-0.61 27.178 41.056 29.62 76.672 66.62 104.836 108.748z" />
<glyph unicode="&#xe00c;" glyph-name="uniE00C" d="M575.87-64h-191.87v512h-128v176.45l128 0.058-0.208 103.952c0 143.952 39.034 231.54 208.598 231.54h141.176v-176.486h-88.23c-66.032 0-69.206-24.656-69.206-70.682l-0.264-88.324h158.69l-18.704-176.45-139.85-0.058-0.13-512z" />
<glyph unicode="&#xe00d;" glyph-name="uniE00D" d="M559.066 896c0 0-200.956 0-267.94 0-120.118 0-233.168-91.006-233.168-196.424 0-107.726 81.882-194.664 204.086-194.664 8.498 0 16.758 0.168 24.842 0.752-7.928-15.186-13.602-32.288-13.602-50.040 0-29.938 16.104-54.21 36.468-74.024-15.384 0-30.242-0.448-46.452-0.448-148.778 0.002-263.298-94.758-263.298-193.020 0-96.778 125.544-157.314 274.334-157.314 169.622 0 263.306 96.246 263.306 193.028 0 77.6-22.896 124.072-93.688 174.134-24.216 17.144-70.53 58.836-70.53 83.344 0 28.72 8.198 42.868 51.428 76.646 44.31 34.624 75.67 83.302 75.67 139.914 0 67.406-30.022 133.096-86.372 154.774h84.952l59.962 43.342zM465.48 240.542c2.126-8.972 3.286-18.206 3.286-27.626 0-78.198-50.392-139.31-194.974-139.31-102.842 0-177.116 65.104-177.116 143.3 0 76.642 92.126 140.442 194.966 139.332 24-0.254 46.368-4.116 66.67-10.69 55.824-38.826 95.874-60.764 107.17-105.006zM300.818 532.224c-69.038 2.064-134.634 77.226-146.552 167.862-11.914 90.664 34.37 160.040 103.388 157.99 69.010-2.072 134.638-74.814 146.558-165.458 11.908-90.66-34.39-162.458-103.392-160.392zM832 704v192h-64v-192h-192v-64h192v-192h64v192h192v64z" />
<glyph unicode="&#xe00e;" glyph-name="uniE00E" d="M928 832h-832c-53.024 0-96-42.976-96-96v-576c0-52.992 42.976-96 96-96h832c53.024 0 96 43.008 96 96v576c0 53.024-42.976 96-96 96zM87.712 128.32l-23.392 23.424 263.968 263.936 23.392-23.424-263.968-263.936zM936.288 128.32l-263.968 263.936 23.392 23.424 263.968-263.936-23.392-23.424zM544 341.6v-21.6h-64v21.6l-415.904 385.6 40.704 40.704 407.2-377.536 407.2 377.536 40.704-40.704-415.904-385.6z" />
<glyph unicode="&#xe00f;" glyph-name="uniE00F" d="M704 320c-64-64-64-128-128-128s-128 64-192 128-128 128-128 192 64 64 128 128-128 256-192 256-192-192-192-192c0-128 131.498-387.5 256-512s384-256 512-256c0 0 192 128 192 192s-192 256-256 192z" />
<glyph unicode="&#xe010;" glyph-name="uniE010" d="M953.398 885.358l-4.028 4.042c-94.15 94.134-248.194 94.134-342.326 0l-218.106-218.134c-94.134-94.132-94.134-248.176 0-342.312l4.024-4.024c7.832-7.846 16.146-14.924 24.736-21.458l79.848 79.85c-9.302 5.496-18.126 12.072-26.118 20.058l-4.040 4.042c-51.112 51.096-51.112 134.272 0 185.39l218.128 218.114c51.116 51.118 134.274 51.118 185.384 0l4.042-4.024c51.1-51.116 51.1-134.294 0-185.39l-98.686-98.686c17.13-42.308 25.248-87.4 24.538-132.386l152.602 152.604c94.136 94.134 94.136 248.178 0 342.314zM631.042 571.066c-7.832 7.83-16.146 14.92-24.736 21.44l-79.85-79.832c9.304-5.498 18.126-12.072 26.116-20.062l4.042-4.040c51.116-51.114 51.116-134.272 0-185.388l-218.128-218.134c-51.118-51.102-134.276-51.102-185.388 0l-4.040 4.042c-51.098 51.12-51.098 134.276 0 185.388l98.688 98.686c-17.134 42.306-25.246 87.402-24.538 132.386l-152.6-152.6c-94.136-94.134-94.136-248.178 0-342.326l4.026-4.032c94.152-94.128 248.192-94.128 342.326 0l218.11 218.12c94.134 94.134 94.134 248.194 0 342.326l-4.028 4.024z" />
<glyph unicode="&#xe011;" glyph-name="uniE011" horiz-adv-x="1366" d="M300.456 519.544c68.466 0 123.968 55.188 123.968 123.262 0 68.082-55.5 123.28-123.968 123.28-68.456 0-123.962-55.198-123.962-123.28-0.002-68.074 55.498-123.262 123.962-123.262zM568.128 677.762h495.502c72.694 0 115.518-46.528 115.518-108.816v-178.346h-611.020v287.16zM433.254 613.944v-106.966h-190.51c-91.974-0.33-92.126-117.89 0-117.89h249.76c36.472 0 59.31 29.274 59.31 62.386v162.47c-0.004 89.006-118.56 89.006-118.56 0zM152.826 780.538c0 97.068-135.432 97.068-135.432 0v-778.376h138.438v201.022h1053.328v-199.51h135.43v601.192c0 102.438-136.932 102.438-136.932 0v-239.956l-1054.83-0.002v415.632z" />
<glyph unicode="&#xe012;" glyph-name="uniE012" horiz-adv-x="1366" d="M1230.736 799.006h-87.754c-12.114 0-21.936-9.822-21.936-21.938v-21.938l-877.514 0.002v21.938c0 12.116-9.824 21.938-21.938 21.938l-87.754-0.002c-12.114 0-21.938-9.822-21.938-21.938v-658.134c0-12.12 9.824-21.942 21.938-21.942h87.752c12.114 0 21.938 9.822 21.938 21.942v87.744c0 12.12 9.822 21.942 21.936 21.942h833.644c12.116 0 21.938-9.822 21.938-21.942v-87.744c0-12.12 9.822-21.942 21.936-21.942h87.754c12.114 0 21.936 9.822 21.936 21.942l-0.006 658.136c0.006 12.116-9.818 21.936-21.932 21.936zM638.41 535.75h-394.882v87.75c0 24.23 19.642 43.874 43.874 43.874h307.13c24.23 0 43.874-19.646 43.874-43.874l0.002-87.75zM1121.046 535.75h-394.88v87.75c0 24.23 19.644 43.874 43.872 43.874h307.132c24.23 0 43.876-19.646 43.876-43.874v-87.75z" />
<glyph unicode="&#xe013;" glyph-name="uniE013" d="M510.016-64c0 0-318.016 449.984-318.016 641.984 0 378.016 318.016 382.016 318.016 382.016s321.984-4 321.984-380c0-197.984-321.984-644-321.984-644zM512 768c-70.688 0-128-57.312-128-128s57.312-128 128-128 128 57.312 128 128-57.312 128-128 128z" />
<glyph unicode="&#xe014;" glyph-name="uniE014" d="M1024 562.952l-353.78 51.408-158.22 320.582-158.216-320.584-353.784-51.406 256-249.538-60.432-352.352 316.432 166.356 316.432-166.36-60.434 352.352 256.002 249.542z" />
<glyph unicode="&#xe015;" glyph-name="uniE015" d="M864 256c-45.162 0-85.92-18.738-115.014-48.83l-431.002 215.502c1.314 8.25 2.016 16.706 2.016 25.328s-0.702 17.076-2.016 25.326l431.002 215.502c29.092-30.088 69.854-48.826 115.014-48.826 88.366 0 160 71.634 160 160s-71.634 160-160 160-160-71.634-160-160c0-8.622 0.704-17.076 2.016-25.326l-431.002-215.504c-29.092 30.088-69.854 48.83-115.014 48.83-88.366 0-160-71.636-160-160 0-88.368 71.634-160 160-160 45.162 0 85.92 18.738 115.014 48.826l431.002-215.502c-1.312-8.25-2.016-16.704-2.016-25.326 0-88.368 71.634-160 160-160s160 71.632 160 160c0 88.364-71.634 160-160 160z" />
<glyph unicode="&#xe016;" glyph-name="uniE016" horiz-adv-x="1366" d="M1094.138 938.394h-823.706c-21.158 0-38.312-17.154-38.312-38.312v-38.312c0-19.866 15.12-36.198 34.482-38.12v-827.728c0-21.162 17.152-38.316 38.312-38.316h38.312c21.158 0 38.312 17.154 38.312 38.316v38.312c0 16.994 11.074 31.384 26.392 36.394h548.716c15.318-5.014 26.394-19.404 26.394-36.394v-38.312c0-21.162 17.154-38.316 38.312-38.316h38.312c21.16 0 38.31 17.154 38.31 38.316l-0.008 827.728c19.36 1.926 34.484 18.256 34.484 38.12v38.314c-0.002 21.158-17.156 38.312-38.316 38.312zM645.89 145.336h-304.582v678.12h304.582v-678.12zM1023.262 145.336h-302.664v678.12h302.664v-678.12zM568.306 371.376h1.914c19.572 0 35.438 15.866 35.438 35.438v82.37c0 19.57-15.866 35.438-35.438 35.438h-1.914c-19.572 0-35.438-15.868-35.438-35.438v-82.37c0.002-19.568 15.866-35.438 35.438-35.438zM794.35 371.376h1.914c19.57 0 35.438 15.866 35.438 35.438v82.37c0 19.57-15.866 35.438-35.438 35.438h-1.914c-19.57 0-35.438-15.868-35.438-35.438v-82.37c0-19.568 15.866-35.438 35.438-35.438z" />
<glyph unicode="&#xe017;" glyph-name="uniE017" horiz-adv-x="1366" d="M1276.742 473.988h-36.376c0 0-75.794 69.134-236.448 144.292-160.678 75.16-254.63 90.182-254.63 90.182h-54.572v54.114h54.572l18.178 36.074h-175.366l18.038-36.074h54.11v-54.11h-54.11c0 0-93.186-15.024-252.514-90.182s-234.478-144.298-234.478-144.298h-36.076v-18.038h1189.672v18.038zM14.924 419.88v-36.072l108.222-18.038c0 0 168.346-270.552 378.774-270.552h356.488c212.194 0 381.962 270.552 381.962 270.552l109.28 18.038v36.072h-1334.724z" />
<glyph unicode="&#xe018;" glyph-name="uniE018" horiz-adv-x="1366" d="M692.752 246.926h-10.476c-11.566 0-20.944-9.378-20.944-20.932v-52.36c0-11.566 9.378-20.932 20.944-20.932h10.476c11.558 0 20.944 9.37 20.944 20.932v52.36c0.002 11.554-9.384 20.932-20.944 20.932zM849.818 246.926h-10.472c-11.576 0-20.942-9.378-20.942-20.932v-52.36c0-11.566 9.366-20.932 20.942-20.932h10.472c11.558 0 20.944 9.37 20.944 20.932v52.36c0.002 11.554-9.386 20.932-20.944 20.932zM1006.88 246.926h-10.472c-11.576 0-20.944-9.378-20.944-20.932v-52.36c0-11.566 9.37-20.932 20.944-20.932h10.472c11.558 0 20.944 9.37 20.944 20.932v52.36c0.002 11.554-9.386 20.932-20.944 20.932zM535.684 246.926h-10.472c-11.566 0-20.944-9.378-20.944-20.932v-52.36c0-11.566 9.378-20.932 20.944-20.932h10.472c11.562 0 20.938 9.37 20.938 20.932v52.36c0 11.554-9.378 20.932-20.938 20.932zM692.752 68.928h-10.476c-11.566 0-20.944-9.376-20.944-20.942v-52.362c0-11.558 9.378-20.932 20.944-20.932h10.476c11.558 0 20.944 9.378 20.944 20.932v52.364c0.002 11.566-9.384 20.942-20.944 20.942zM849.818 68.928h-10.472c-11.576 0-20.942-9.376-20.942-20.942v-52.362c0-11.558 9.366-20.932 20.942-20.932h10.472c11.558 0 20.944 9.378 20.944 20.932v52.364c0.002 11.566-9.386 20.942-20.944 20.942zM1006.88 68.928h-10.472c-11.576 0-20.944-9.376-20.944-20.942v-52.362c0-11.558 9.37-20.932 20.944-20.932h10.472c11.558 0 20.944 9.378 20.944 20.932v52.364c0.002 11.566-9.386 20.942-20.944 20.942zM535.684 68.928h-10.472c-11.566 0-20.944-9.376-20.944-20.942v-52.362c0-11.558 9.378-20.932 20.944-20.932h10.472c11.562 0 20.938 9.378 20.938 20.932v52.364c0 11.566-9.378 20.942-20.938 20.942zM828.874 623.888v83.766c0 115.664-93.76 209.416-209.422 209.416h-282.72v-115.182h261.776c57.836 0 104.718-46.886 104.718-104.706v-73.294c-109.888 0-198.956-110.394-198.956-220.274v-72.918h523.558v72.918c-0.002 109.876-89.076 220.274-198.956 220.274z" />
<glyph unicode="&#xe019;" glyph-name="uniE019" d="M1024 960v-384l-138.26 138.26-212-212-107.48 107.48 212 212-138.26 138.26zM245.74 821.74l212-212-107.478-107.478-212 212-138.26-138.26v384h384zM885.74 181.74l138.26 138.26v-384h-384l138.26 138.26-212 212 107.48 107.48zM457.738 286.26l-212-212 138.262-138.26h-384v384l138.26-138.26 212 212z" />
<glyph unicode="&#xe01a;" glyph-name="uniE01A" horiz-adv-x="1366" d="M438.834 681.282h-98.234v32.744h13.096c1.808 0 3.274 1.466 3.274 3.274l-0.002 42.568c0 1.81-1.466 3.276-3.274 3.276h-58.942c-1.808 0-3.274-1.466-3.274-3.276v-42.568c0-1.81 1.466-3.274 3.274-3.274h13.096v-32.744h-32.746l0.002 98.23c0 0 51.674 51.674 130.98 65.488 18.526 3.226 34.926 5.864 49.118 8v-21.098c0-1.81 1.466-3.274 3.274-3.274h58.942c1.808 0 3.274 1.466 3.274 3.274v62.216c0 0-90.046 16.884-163.726-16.372-73.676-33.258-130.978-67.536-130.978-98.234 0-21.488 0-98.232 0-98.232l-32.748-0.002v32.742h13.098c1.808 0 3.276 1.466 3.276 3.274v42.572c0 1.81-1.468 3.274-3.276 3.274l-58.938-0.002c-1.808 0-3.276-1.466-3.276-3.274v-42.57c0-1.81 1.468-3.274 3.276-3.274h13.098v-32.744l-32.746 0.002v-49.118h311.074l0.002 49.118zM1241.078 533.928h81.862v65.488l-1277.042 0.002v-65.488h65.488c0 0 5.458-83.23 65.488-212.842s114.606-163.722 114.606-163.722l-65.488-114.608h114.606l49.118 114.608h720.382l32.742-114.608h114.608l-65.488 147.35c0 0-13.642-6.822 16.374 98.234s32.748 245.586 32.748 245.586zM278.62 288.552c-23.136 36.124-48.912 81.528-69.002 130.774-29.774 72.986-32.742 114.606-32.742 114.606s60.032 0 81.862 0c12.43-86.23 47.846-180.306 76.056-245.38h-56.17zM337.326 206.686c0 0-15.454 18.476-36.824 49.118h48.944c14.030-30.386 23.9-49.118 23.9-49.118h-36.018zM1175.586 239.226h-16.374v294.702h49.118c0.002 0-1.362-218.298-32.744-294.702z" />
<glyph unicode="&#xe01b;" glyph-name="uniE01B" horiz-adv-x="1366" d="M729.548 441.24v167.414h-19.24v-167.414h19.24zM624.752 447.6l52.524 161.056-18.506 4.564-52.528-161.056 18.512-4.566zM588.594 605.736l-17.998 5.93-68.106-156.58 17.998-5.926 68.106 156.574zM819.976 441.322l18.326 4.61-51.986 162.582-18.32-4.616 51.982-162.576zM855.754 600.952l67.414-158.056 17.81 5.986-67.408 158.058-17.816-5.988zM731.274 728.112c-179.394 0-190.852-76.496-190.852-76.496h362.624c-0.004-0.002-21.298 76.496-171.77 76.496zM769.446 823.736h286.282v-362.39h95.426c0 0 0 263.64 0 362.392 0 98.754-95.426 95.626-95.426 95.626s-133.762 0-248.106 0c-114.352 0-114.514-57.376-114.514-57.376v-95.62h76.346l-0.002 57.37zM205.366 138.202c0 0 51.098-162.914 265.812-163.462 146.216-0.368 349.068-0.194 426.486 0 214.712 0.546 265.814 163.588 265.814 163.588s10.34 20.654 15.126 73.35h-988.366c4.782-52.72 15.128-73.476 15.128-73.476zM1239.528 394.462h-1106.834c0 0-60.926-8.398-60.926-86.014 0-62.176 37.232-56.15 37.232-56.15l1150.832 0.068c0 0 37.234-6.024 37.234 56.124 0 77.576-57.538 85.97-57.538 85.97z" />
<glyph unicode="&#xe01c;" glyph-name="uniE01C" horiz-adv-x="1366" d="M1079.548 521.452c0 39.942-32.336 72.326-72.222 72.326l-332.216 0.002v-173.582l404.438 0.002v101.25zM379.002 564.848c59.832 0 108.334 48.57 108.334 108.49s-48.504 108.49-108.334 108.49c-59.826 0-108.332-48.576-108.332-108.494s48.5-108.486 108.332-108.486zM328.446 405.73h245.552c31.906 0 57.776 25.908 57.776 57.866 0 48.038 0 144.654 0 144.654 0 31.954-25.866 57.866-57.776 57.866s-57.78-25.914-57.78-57.866v-86.796h-187.77c-31.912 0-57.776-25.902-57.776-57.858 0.002-31.956 25.866-57.866 57.776-57.866zM1209.548 593.78c-39.89 0-72.22-32.386-72.22-72.326v-173.584h-909.986v361.634c0 39.946-32.336 72.326-72.224 72.326-39.882 0-72.216-32.382-72.216-72.326v-607.544h144.442v86.788h909.986v-86.788h144.44l-0.006 419.49c0 39.942-32.336 72.328-72.218 72.328z" />
<glyph unicode="&#xe01d;" glyph-name="uniE01D" horiz-adv-x="1366" d="M235.45 79.138h52.694v87.824h-52.692v-87.824zM1078.56 79.138h52.692v87.824h-52.692v-87.824zM955.606 623.648h-175.646c-67.514 0-87.824-105.39-87.824-105.39h351.296c-0.002 0-25.802 105.39-87.826 105.39zM673.754 816.862c-439.12 0-613.952-158.082-613.952-158.082v-386.424h122.954v-70.258h1001.192v70.258h122.954l-0.002 386.424c-0.002 0-194.038 158.086-633.15 158.086zM1254.208 342.61h-70.26v122.954h-1001.192v-122.954h-70.256v281.81c80.482 46.64 257.622 122.182 561.26 122.182 309.282 0 496.504-78.252 580.452-124.634l-0.002-279.358zM551.614 623.648h-175.648c-67.518 0-87.824-105.39-87.824-105.39h351.296c0.002 0-25.798 105.39-87.824 105.39z" />
<glyph unicode="&#xe01e;" glyph-name="uniE01E" d="M1024 960v-416l-160 160-192-192-96 96 192 192-160 160zM448 288l-192-192 160-160h-416v416l160-160 192 192z" />
<glyph unicode="&#xe020;" glyph-name="uniE020" horiz-adv-x="1366" d="M1160.106 539.88l-115.782 270.158c-20.112 48.634-45.018 100.568-100.568 100.568h-522.944c-55.536 0-79.824-49.418-100.568-100.568l-115.782-270.158c-72.846-23.418-125.576-91.702-125.576-172.332v-221.25h120.68v-100.568c0-33.332 27.016-60.338 60.338-60.338h20.114c33.322 0 60.338 27.008 60.338 60.338l0.002 100.568h703.962v-100.568c0-33.332 27.028-60.338 60.338-60.338h20.114c33.312 0 60.338 27.008 60.338 60.338l0.002 100.568h100.566v221.25c0 80.63-52.728 148.912-125.576 172.332zM380.586 810.038c0 22.216 18.012 40.226 40.226 40.226h522.942c22.216 0 40.226-18.010 40.226-40.226l80.45-241.358-764.294-0.002 80.45 241.36zM259.908 287.092c-44.43 0-80.45 36.024-80.45 80.45 0 44.432 36.026 80.45 80.45 80.45 44.43 0 80.45-36.024 80.45-80.45 0.002-44.424-36.022-80.45-80.45-80.45zM1104.664 287.092c-44.43 0-80.45 36.024-80.45 80.45 0 44.432 36.022 80.45 80.45 80.45 44.432 0 80.45-36.024 80.45-80.45 0.002-44.424-36.018-80.45-80.45-80.45z" />
<glyph unicode="&#xe021;" glyph-name="uniE021" horiz-adv-x="1434" d="M63.022 188.774c-60.292-35.572-71.174-111.31-58.098-157.26 12.682-44.562 57.394-97.686 137.848-97.686h0.178c0 0 1037.376 0 1141.986 0 90.082 0 131.162 51.64 143.84 96.202 13.078 45.948 13.078 117.096-56.664 160.082l-604.77 356.944v60.774c0 68.924-75.188 98.846-75.188 98.846-48.67 23.72-44.312 74.85-44.312 74.85 0 60.028 53.758 79.298 77.722 79.298 40.246 0 79.716-22.318 83.88-73.37 6.538-80.040 97.23-59.726 97.23 4.582 0 60.768-55.432 167.36-181.836 167.36-136.64 0-175.886-133.602-175.886-175.848 0-31.86 5.034-61.286 24.698-94.862 33.414-57.064 100.288-66.034 100.288-103.828v-37.8l-610.922-358.286zM716.852 455.428l592.512-346.274c36.748-26.030 16.844-75.026-22.968-75.11h-1141.814c-37.162-1.448-60.128 50.61-23.382 73.576l595.648 347.806z" />
<glyph unicode="&#xe023;" glyph-name="uniE027" horiz-adv-x="978" d="M912.098 514.782h-111.306l0.002 289.392-155.826 155.826h-578.784c-36.884 0-66.782-29.898-66.782-66.782v-890.434c0-36.888 29.896-66.782 66.782-66.782h667.826c36.864 0 66.782 29.898 66.782 66.782v133.566h111.306c36.864 0 66.782 29.898 66.782 66.782l0.002 244.87c0 36.888-29.898 66.782-66.784 66.782zM734.010 2.782h-667.826v890.438h534.26v-133.566h133.566v-244.868l-400.694-0.002c-36.888 0-66.782-29.896-66.782-66.782v-244.868c0-36.886 29.896-66.782 66.782-66.782h400.694v-133.568zM450.408 266.086l85.706 123.35v1.068h-77.692v33.638h130.56v-23.486l-83.856-121.744v-1.090h85.17v-33.638h-139.888v21.904zM656.856 424.136v-179.934l-40.826-0.002v179.934l40.826 0.002zM692.162 421.732c12.534 2.136 30.698 3.74 55.006 3.74 25.088 0 42.986-4.808 55.006-14.402 11.486-9.082 19.212-24.020 19.212-41.65 0-17.898-5.876-32.856-16.562-42.718-13.866-13.090-34.438-19.212-58.19-19.212-5.61 0-10.418 0.512-14.158 0.778v-64.066l-40.312-0.002v177.53zM732.456 339.79c2.938-0.534 7.746-0.802 13.602-0.802 21.636 0 34.972 10.93 34.972 29.118 0 16.808-11.198 26.69-32.298 26.69-7.99 0-13.356-0.802-16.272-1.358l-0.002-53.648z" />
<glyph unicode="&#xe028;" glyph-name="uniE028" horiz-adv-x="854" d="M121.496 50.704h-0.314l-18.846 69.092h-32.662v-112.116h27.324v69.25h0.314l19.472-69.25h32.034v112.12h-27.324l-0.002-69.096zM196.23 122c-29.836 0-40.040-16.334-40.040-58.258s10.21-58.258 40.040-58.258c29.836 0 40.040 16.334 40.040 58.258s-10.204 58.258-40.040 58.258zM196.23 25.266c-8.95 0-9.894 8.168-9.894 38.472s0.942 38.472 9.894 38.472c8.954 0 9.894-8.168 9.894-38.472s-0.942-38.472-9.894-38.472zM324.034 119.802h-43.81v-112.12h29.206v42.716h10.206c23.712 0 36.746 11.934 36.746 34.86 0.002 19.63-10.048 34.546-32.346 34.546zM314.928 71.432h-5.496v27.322h5.496c7.38 0 11.306-4.394 11.306-13.658 0-9.424-3.922-13.664-11.306-13.664zM361.402 7.68h29.206v112.12h-29.206v-112.12zM436.924 25.266c-8.952 0-9.894 8.168-9.894 38.472s0.942 38.472 9.894 38.472c5.654 0 8.012-3.77 8.012-16.49v-6.28h28.262v7.066c0 21.672-9.894 35.488-36.274 35.488-30.304 0-40.040-15.39-40.040-58.258 0-41.77 7.224-58.258 40.040-58.258 18.688 0 37.058 7.542 37.058 38.946v8.322h-28.264c0-21.192-1.566-27.476-8.794-27.476zM474.132 94.99h21.982v-87.31h29.212v87.31h21.982v24.812h-73.176v-24.812zM596.294 38.928c0-10.836-3.298-13.664-8.794-13.664s-8.794 2.826-8.794 13.664v80.87h-29.206v-73.488c0-31.406 13.504-40.83 38-40.83s38 9.424 38 40.83v73.488h-29.206v-80.87zM712.016 12.708c-1.414 2.198-1.414 9.736-1.414 15.544v9.582c0 14.918-4.24 23.87-18.376 25.122v0.318c13.35 2.042 19.158 11.776 19.158 26.692 0 17.274-8.478 29.836-30.778 29.836h-45.698v-112.124h29.206v44.91h7.696c7.066 0 9.576-3.298 9.576-16.016v-7.536c0-4.712 0-15.39 2.826-21.358h31.092v1.57c-1.88 0.942-2.506 2.198-3.292 3.458zM669.934 72.376h-5.812v26.382h5.654c8.794 0 12.408-3.922 12.408-13.034-0.002-8.006-3.928-13.35-12.246-13.35zM751.104 31.55v22.294h34.86v22.928h-34.86v19.158h37.212v23.87h-66.422l0.004-112.12h67.832v23.87h-38.63zM426.286 891.732c-197.942 0-358.4-160.458-358.4-358.4s160.462-358.4 358.4-358.4c197.938 0 358.4 160.462 358.4 358.4s-160.462 358.4-358.4 358.4zM424.69 843.948c170.666 0 309.020-138.352 309.020-309.020 0-47.226-10.608-91.972-29.552-132.004l-533.476 308.002c55.796 80.38 148.75 133.022 254.010 133.022zM424.69 225.908c-170.668 0-309.020 138.352-309.020 309.020 0 48.312 11.094 94.030 30.864 134.76l533.904-308.25c-55.592-81.794-149.394-135.526-255.75-135.526zM422.87 407.28c-64.796 0-117.326 53.258-117.326 118.944 0 11.528 1.648 22.658 4.666 33.198l-126.278 72.904v-227.284c0-10.198 8.228-18.466 18.382-18.466h407.274l-101.094 58.368c-21.408-23.168-51.84-37.664-85.622-37.664zM321.786 526.224c0-55.8 45.258-101.030 101.090-101.030 27.37 0 52.182 10.884 70.386 28.546l-168.412 97.23c-1.992-7.918-3.064-16.208-3.064-24.746zM643.432 663.644h-148.64v0.462l-18.408 18.488c-0.254 9.81-8.11 17.714-17.872 17.97l-0.026 0.022h-74.046c-10.096-0.042-18.25-8.256-18.306-18.398l-18.384-18.474v-0.070h-67.866l72.85-42.058c19.566 14.814 43.84 23.59 70.142 23.59 64.802 0 117.33-53.262 117.33-118.952 0-4.222-0.222-8.392-0.65-12.502l122.258-70.586v202.034c0 10.206-8.226 18.476-18.382 18.476zM523.962 526.224c0 55.806-45.248 101.046-101.090 101.046-19.644 0-37.964-5.618-53.476-15.306l154.48-89.19c0.038 1.148 0.086 2.294 0.086 3.452z" />
<glyph unicode="&#xe029;" glyph-name="uniE029" d="M512 878.080c-237.526 0-430.080-192.552-430.080-430.080s192.552-430.080 430.080-430.080c237.528 0 430.080 192.552 430.080 430.080s-192.552 430.080-430.080 430.080zM510.086 820.736c204.8 0 370.822-166.024 370.822-370.822 0-56.672-12.73-110.366-35.462-158.404l-640.172 369.602c66.958 96.456 178.498 159.626 304.81 159.626zM510.086 79.090c-204.8 0-370.822 166.024-370.822 370.822 0 57.976 13.312 112.836 37.034 161.71l640.682-369.902c-66.712-98.154-179.274-162.63-306.896-162.63zM386.6 439.466c0-66.962 54.308-121.236 121.308-121.236 32.846 0 62.62 13.062 84.464 34.25l-202.092 116.678c-2.392-9.5-3.68-19.45-3.68-29.694zM772.576 604.374h-178.37v0.552l-22.090 22.188c-0.304 11.77-9.732 21.256-21.448 21.566l-0.032 0.024h-88.856c-12.118-0.050-21.902-9.908-21.966-22.078l-22.062-22.172v-0.082h-81.44l87.422-50.472c23.478 17.776 52.608 28.308 84.168 28.308 77.762 0 140.794-63.914 140.794-142.74 0-5.068-0.264-10.072-0.778-15.004l146.712-84.702v242.442c-0.002 12.242-9.874 22.168-22.058 22.168zM507.904 296.734c-77.754 0-140.79 63.91-140.79 142.734 0 13.834 1.978 27.19 5.6 39.838l-151.538 87.488v-272.74c0-12.236 9.878-22.16 22.056-22.16h488.726l-121.312 70.042c-25.684-27.802-62.206-45.2-102.742-45.2zM629.216 439.466c0 66.966-54.298 121.254-121.308 121.254-23.572 0-45.558-6.742-64.17-18.366l185.376-107.024c0.046 1.37 0.102 2.746 0.102 4.134z" />
<glyph unicode="&#xe02a;" glyph-name="uniE02A" d="M954.856 636.572q0-22.856-16-38.856l-491.428-491.428q-16-16-38.856-16t-38.856 16l-284.572 284.572q-16 16-16 38.856t16 38.856l77.714 77.714q16 16 38.856 16t38.856-16l168-168.572 374.858 375.428q16 16 38.856 16t38.856-16l77.714-77.714q16-16 16-38.858z" />
<glyph unicode="&#xe02b;" glyph-name="uniE02B" d="M623.296 136.32l33.408-66.752h-289.408l33.408 66.752h-66.816l-89.024-178.048h66.752l33.408 66.752h333.888l33.408-66.752h66.752l-89.024 178.112-66.752-0.064zM868.16 314.432l-88.96 556.544c0 36.928-29.952 66.752-66.752 66.752h-400.768c-36.864 0-66.752-29.888-66.752-66.752l-89.024-556.544c-7.68-68.224 29.888-111.296 66.752-111.296h578.752c36.864 0 77.888 43.776 66.752 111.296zM445.248 870.976c0 12.288 9.984 22.272 22.272 22.272h89.024c12.288 0 22.272-9.984 22.272-22.272l-0.064-22.272c0-12.288-9.984-22.272-22.272-22.272h-89.024c-12.288 0-22.208 9.984-22.208 22.272v22.272zM389.568 269.888c-30.72 0-55.68 24.832-55.68 55.616s24.896 55.68 55.68 55.68 55.68-24.832 55.68-55.68c0-30.656-24.96-55.616-55.68-55.616zM634.432 269.888c-30.784 0-55.68 24.832-55.68 55.616s24.832 55.68 55.68 55.68c30.72 0 55.616-24.832 55.616-55.68 0.064-30.656-24.896-55.616-55.616-55.616zM222.592 448l44.544 333.888h489.728l44.544-333.888h-578.816z" />
<glyph unicode="&#xe02d;" glyph-name="uniE02D" d="M1024 601.846c0 162.456-131.702 294.154-294.154 294.154-86.364 0-164.030-37.218-217.846-96.49-53.814 59.272-131.48 96.49-217.846 96.49-162.456 0-294.154-131.698-294.154-294.154 0-86.364 37.218-164.030 96.49-217.846h-0.49l320-320c32-32 64-64 96-64s64 32 96 64l320 320h-0.49c59.27 53.816 96.49 131.48 96.49 217.846zM841.466 478.768l-323.976-324.258c-1.678-1.678-3.53-3.53-5.49-5.48-1.96 1.95-3.814 3.802-5.49 5.48l-323.976 324.256c-35.166 31.928-54.534 75.64-54.534 123.080 0 91.618 74.538 166.154 166.154 166.154 47.44 0 91.15-19.366 123.076-54.534l94.768-104.38 94.768 104.376c31.928 35.168 75.636 54.536 123.076 54.536 91.618 0 166.154-74.538 166.154-166.154 0-47.44-19.37-91.15-54.534-123.078z" />
<glyph unicode="&#xe02e;" glyph-name="uniE02E" d="M792 336c-46.24 0-88.096-18.72-118.464-48.928l-275.648 139.84c0.864 6.976 2.112 13.856 2.112 21.088 0 7.136-1.248 13.92-2.080 20.832l276.16 139.68c30.336-29.952 71.936-48.512 117.952-48.512 92.768 0 168 75.232 168 168s-75.264 168-168.032 168-168-75.232-168-168c0-7.456 1.248-14.56 2.176-21.76l-275.52-139.36c-30.4 30.336-72.352 49.12-118.656 49.12-92.768 0-168-75.232-168-168s75.232-168 168-168c46.208 0 88 18.688 118.368 48.864l275.744-139.904c-0.864-6.944-2.112-13.792-2.112-20.96 0-92.768 75.232-168 168-168s168 75.232 168 168-75.232 168-168 168z" />
<glyph unicode="&#xe02f;" glyph-name="uniE02F" d="M290.132 550.4h-170.668c-9.418 0-17.064-7.646-17.064-17.068v-34.132c0-9.422 7.646-17.068 17.068-17.068h170.668c9.418 0 17.064 7.646 17.064 17.068v34.132c0 9.422-7.646 17.068-17.068 17.068zM290.132 686.932h-238.932c-9.422 0-17.068-7.646-17.068-17.066v-34.132c0-9.422 7.646-17.068 17.068-17.068h238.932c9.422 0 17.068 7.646 17.068 17.064v34.134c0 9.422-7.646 17.068-17.068 17.068zM290.132 413.866h-102.4c-9.42 0-17.064-7.646-17.064-17.068v-34.134c0-9.422 7.646-17.068 17.064-17.068h102.4c9.422 0 17.068 7.646 17.068 17.068v34.134c0 9.422-7.646 17.068-17.068 17.068zM989.866 686.932h-580.268c-18.842 0-34.132-15.258-34.132-34.134v-409.6c0-18.876 15.29-34.134 34.132-34.134h580.268c18.876 0 34.134 15.256 34.134 34.134v409.6c0 18.876-15.256 34.132-34.134 34.132zM955.732 277.332h-512v341.334h512v-341.334zM682.462 363.076c0.306-0.272 0.718-0.306 0.99-0.546 9.456-7.61 23.006-8.124 32.63-0.034l150.904 116.394c10.992 9.25 12.39 25.738 3.208 36.794l-1.674 2.014c-9.25 11.024-25.668 12.494-36.658 3.242l-132.266-102.024-133.462 102.332c-11.024 9.25-27.51 7.818-36.726-3.242l-1.706-2.014c-9.25-11.024-7.818-27.476 3.244-36.726l151.518-116.19z" />
<glyph unicode="&#xe030;" glyph-name="uniE030" d="M256 320h-32v-32h32v32zM192 448h-32v-32h32v32zM256 448h-32v-32h32v32zM192 384h-32v-32h32v32zM256 384h-32v-32h32v32zM288 544h32v32h-32v-32zM128 320h-32v-32h32v32zM128 704v-192h-128v-288h320v288h-128v160h160v-448h32v480h-256zM288 480v-224h-96v64h-32v-64h-96v224h224zM128 448h-32v-32h32v32zM224 544h32v32h-32v-32zM128 384h-32v-32h32v32zM256 640h-32v-32h32v32zM288 608h32v32h-32v-32zM928 512v192h-320v-480h32v448h224v-160h-32v32h-64v-32h-32v32h-64v-320h128v96h64v-96h160v288h-96zM960 256h-64v96h-128v-96h-64v224h256v-224zM736 640h-64v-64h64v64zM832 640h-64v-64h64v64zM736 448h64v-64h-64zM864 448h64v-64h-64zM416 512v-64h160v64h-160zM416 352h160v64h-160v-64z" />
<glyph unicode="&#xe031;" glyph-name="uniE031" horiz-adv-x="696" d="M513.426 636.562l-79.104 20.298 85.834-205.056 76.874-270.372 97.28-191.524-74.606-40.52-108.508 191.488-103.936 202.788-116.152-146.688-12.946-258.342-80.346-2.56-0.878 310.712 110.812 171.264-40.704 171.192-77.642-55.772-159.744-59.136-29.074 60.452 174.408 88.356 58.15 121.6 36.17 38.29 65.572 20.298 79.104-11.264 174.118-100.938 54.162-187.502-65.536-24.76-63.304 157.696zM263.058 809.216c-41.728 0-75.63 33.718-75.63 75.41-0.038 41.618 33.866 75.374 75.63 75.374s75.63-33.754 75.63-75.41c0-41.656-33.866-75.374-75.63-75.374z" />
<glyph unicode="&#xe033;" glyph-name="uniE033" horiz-adv-x="978" d="M912.098 514.782h-111.306l0.002 289.392-155.826 155.826h-578.784c-36.884 0-66.782-29.898-66.782-66.782v-890.434c0-36.888 29.896-66.782 66.782-66.782h667.826c36.864 0 66.782 29.898 66.782 66.782v133.566h111.306c36.864 0 66.782 29.898 66.782 66.782l0.002 244.87c0 36.888-29.898 66.782-66.784 66.782zM734.010 2.782h-667.826v890.438h534.26v-133.566h133.566v-244.868l-400.694-0.002c-36.888 0-66.782-29.896-66.782-66.782v-244.868c0-36.886 29.896-66.782 66.782-66.782h400.694v-133.568zM441.348 389.966h-48.33v34.192h138.306v-34.192h-49.13v-145.764h-40.848v145.764zM652.626 244.202l-16.294 32.59c-6.678 12.534-10.952 21.86-16.004 32.298h-0.534c-3.74-10.442-8.28-19.79-13.89-32.298l-14.96-32.59h-46.438l52.046 91.048-50.176 88.91h46.704l15.784-32.834c5.322-10.952 9.328-19.768 13.602-29.918h0.512c4.25 11.486 7.746 19.5 12.288 29.918l15.226 32.834h46.458l-50.73-87.842 53.404-92.116-46.996 0.002zM757.898 389.966h-48.328v34.192h138.306v-34.192h-49.13v-145.764h-40.848v145.764z" />
<glyph unicode="&#xe034;" glyph-name="uniE034" horiz-adv-x="682" d="M-11.43 448h256l85.332-256 256 768h106.668l-362.666-1024-170.668 426.666h-170.668v85.332z" />
<glyph unicode="&#xe035;" glyph-name="uniE035" horiz-adv-x="978" d="M912.098 514.782h-111.306l0.002 289.392-155.826 155.826h-578.784c-36.884 0-66.782-29.898-66.782-66.782v-890.434c0-36.888 29.896-66.782 66.782-66.782h667.826c36.864 0 66.782 29.898 66.782 66.782v133.566h111.306c36.864 0 66.782 29.898 66.782 66.782l0.002 244.87c0 36.888-29.898 66.782-66.784 66.782zM734.010 2.782h-667.826v890.438h534.26v-133.566h133.566v-244.868l-400.694-0.002c-36.888 0-66.782-29.896-66.782-66.782v-244.868c0-36.886 29.896-66.782 66.782-66.782h400.694v-133.568zM377.704 399.472c14.96 2.382 34.438 3.74 55.006 3.74 34.17 0 56.344-6.12 73.686-19.212 18.7-13.89 30.43-36.040 30.43-67.828 0-34.438-12.534-58.19-29.896-72.86-18.966-15.76-47.794-23.24-83.034-23.24-21.082 0-36.040 1.336-46.192 2.672l0.002 176.73zM418.552 252.66c3.472-0.822 9.084-0.822 14.158-0.822 36.842-0.268 60.884 20.034 60.884 63.020 0.266 37.376-21.638 57.122-56.61 57.122-9.084 0-14.96-0.802-18.432-1.578v-117.74zM728.38 312.164c0-60.35-39.78-93.184-88.106-93.184-51.802 0-84.88 37.644-84.88 91.558 0 55.808 35.506 94.25 88.354 94.25 54.448 0.024 84.634-40.002 84.634-92.626zM598.332 311.654c0-33.658 15.494-60.35 43.52-60.35 28.85 0 43.52 27.76 43.52 60.35 0 30.43-13.356 60.862-43.23 60.862-28.606 0-43.81-27.514-43.81-60.862zM887.322 226.994c-7.48-3.74-24.308-7.99-46.192-7.99-62.198 0-94.23 38.978-94.23 90.246 0 61.418 43.788 95.322 98.26 95.322 21.082 0 37.086-4.006 44.298-7.746l-8.258-32.298c-8.304 3.472-19.79 6.678-34.172 6.678-32.298 0-57.41-19.48-57.41-59.524 0-36.040 21.37-58.746 57.678-58.746 12.264 0 25.89 2.65 33.904 5.876l6.12-31.812z" />
<glyph unicode="&#xe036;" glyph-name="uniE036" d="M107.45 958.568v-819.234h245.76v-204.8l368.64 204.8v819.234h-614.4zM435.13 344.168c-22.63 0-40.96 18.328-40.96 40.96 0 22.664 18.33 40.994 40.96 40.994 22.666 0 40.994-18.328 40.994-40.994 0-22.63-18.362-40.96-40.994-40.96zM353.212 753.768v-532.48h-163.84v655.36h385.024l-221.184-122.88z" />
<glyph unicode="&#xe037;" glyph-name="uniE037" horiz-adv-x="722" d="M603.528 804.712c0 58.428-47.466 105.834-105.894 105.834h-275.154c-58.426 0-105.894-47.406-105.894-105.834l-84.632-486.76c0-58.428 47.466-105.894 105.894-105.894h444.416c58.428 0 105.894 47.466 105.894 105.894l-84.63 486.76zM307.112 868.202h126.976v-84.69h-126.976v84.69zM243.562 254.464c-35.056 0-63.488 28.312-63.488 63.488 0 35.056 28.432 63.488 63.488 63.488 35.178 0 63.488-28.432 63.488-63.488 0.062-35.118-28.31-63.488-63.488-63.488zM476.432 254.464c-35.178 0-63.488 28.312-63.488 63.488 0 35.056 28.31 63.488 63.488 63.488 35.056 0 63.488-28.432 63.488-63.488 0.064-35.118-28.428-63.488-63.488-63.488zM95.504 444.928l63.488 296.298h402.13l63.488-296.298h-529.106zM476.432 148.572l21.082-63.488h-275.154l21.082 63.488h-63.488l-84.454-169.262h105.894l21.082 42.286h296.238l21.202-42.286h105.774l-105.774 169.262h-63.488z" />
<glyph unicode="&#xe038;" glyph-name="uniE038" horiz-adv-x="978" d="M912.098 514.782h-111.306l0.002 289.392-155.826 155.826h-578.784c-36.884 0-66.782-29.898-66.782-66.782v-890.434c0-36.888 29.896-66.782 66.782-66.782h667.826c36.864 0 66.782 29.898 66.782 66.782v133.566h111.306c36.864 0 66.782 29.898 66.782 66.782l0.002 244.87c0 36.888-29.898 66.782-66.784 66.782zM734.010 2.782h-667.826v890.438h534.26v-133.566h133.566v-244.868l-400.694-0.002c-36.888 0-66.782-29.896-66.782-66.782v-244.868c0-36.886 29.896-66.782 66.782-66.782h400.694v-133.568zM536.826 313.076c-0.802 21.616-1.602 47.77-1.602 73.95h-0.802c-5.61-22.952-13.356-49.13-20.010-69.966l-21.882-69.966h-32.034l-18.966 69.41c-5.878 21.37-12.022 46.972-16.272 70.5h-0.536c-1.068-24.308-1.87-52.092-3.204-74.506l-3.204-68.342h-37.642l11.486 179.934h54.206l17.63-60.058c5.878-20.568 11.222-44.054 15.226-65.178h0.802c5.076 20.836 10.93 45.39 17.096 65.424l19.212 59.792h53.136l9.884-179.934h-39.78l-2.738 68.942zM610.642 421.732c12.554 2.136 30.698 3.74 55.006 3.74 25.088 0 43.008-4.808 55.006-14.402 11.486-9.082 19.212-24.020 19.212-41.65 0-17.898-5.876-32.856-16.538-42.718-13.89-13.090-34.46-19.212-58.19-19.212-5.61 0-10.442 0.512-14.182 0.778v-64.066h-40.316l0.002 177.528zM650.934 339.79c2.96-0.534 7.746-0.802 13.624-0.802 21.636 0 34.972 10.93 34.972 29.118 0 16.808-11.222 26.69-32.298 26.69-8.014 0-13.356-0.802-16.294-1.358v-53.648zM766.624 283.982c7.212-3.74 23.774-10.664 40.336-10.664 21.082 0 31.768 10.128 31.768 23.218 0 17.096-17.096 24.822-34.948 24.822h-16.562v29.118h15.74c13.624 0.268 31.010 5.322 31.010 20.010 0 10.418-8.572 18.142-25.644 18.142-14.134 0-29.096-6.144-36.308-10.418l-8.258 29.362c10.394 6.678 31.208 13.090 53.648 13.090 37.11 0 57.654-19.5 57.654-43.23 0-18.432-10.394-32.856-31.768-40.336v-0.534c20.836-3.74 37.644-19.48 37.644-42.186 0-30.698-26.98-53.136-71.014-53.136-22.438 0-41.384 5.876-51.51 12.288l8.212 30.452z" />
<glyph unicode="&#xe039;" glyph-name="uniE039" horiz-adv-x="978" d="M912.098 514.782h-111.306l0.002 289.392-155.826 155.826h-578.784c-36.884 0-66.782-29.898-66.782-66.782v-890.434c0-36.888 29.896-66.782 66.782-66.782h667.826c36.864 0 66.782 29.898 66.782 66.782v133.566h111.306c36.864 0 66.782 29.898 66.782 66.782l0.002 244.87c0 36.888-29.898 66.782-66.784 66.782zM734.010 2.782h-667.826v890.438h534.26v-133.566h133.566v-244.868l-400.694-0.002c-36.888 0-66.782-29.896-66.782-66.782v-244.868c0-36.886 29.896-66.782 66.782-66.782h400.694v-133.568zM409.962 421.732c12.556 2.136 30.698 3.74 55.006 3.74 25.11 0 42.986-4.808 55.006-14.402 11.486-9.082 19.212-24.020 19.212-41.65 0-17.898-5.876-32.856-16.538-42.718-13.89-13.090-34.438-19.212-58.214-19.212-5.588 0-10.394 0.512-14.134 0.778v-64.066h-40.314l0.002 177.528zM450.274 339.79c2.94-0.534 7.746-0.802 13.622-0.802 21.616 0 34.95 10.93 34.95 29.118 0 16.808-11.198 26.69-32.298 26.69-7.99 0-13.334-0.802-16.272-1.358v-53.648zM565.164 421.732c14.96 2.382 34.46 3.74 55.006 3.74 34.172 0 56.342-6.12 73.706-19.212 18.698-13.89 30.43-36.040 30.43-67.828 0-34.438-12.534-58.19-29.918-72.86-18.966-15.76-47.77-23.24-83.010-23.24-21.082 0-36.040 1.336-46.192 2.672l0.002 176.73zM606.010 274.922c3.452-0.822 9.062-0.822 14.134-0.822 36.864-0.268 60.862 20.034 60.862 63.020 0.29 37.376-21.616 57.122-56.586 57.122-9.062 0-14.96-0.802-18.408-1.578v-117.74zM751.086 424.136h109.99v-33.346h-69.144v-41.138h64.6v-33.102h-64.6v-72.346h-40.848v179.934z" />
<glyph unicode="&#xe03a;" glyph-name="uniE03A" horiz-adv-x="978" d="M912.098 514.782h-111.306l0.002 289.392-155.826 155.826h-578.784c-36.884 0-66.782-29.898-66.782-66.782v-890.434c0-36.888 29.896-66.782 66.782-66.782h667.826c36.864 0 66.782 29.898 66.782 66.782v133.566h111.306c36.864 0 66.782 29.898 66.782 66.782l0.002 244.87c0 36.888-29.898 66.782-66.784 66.782zM734.010 2.782h-667.826v890.438h534.26v-133.566h133.566v-244.868l-400.694-0.002c-36.888 0-66.782-29.896-66.782-66.782v-244.868c0-36.886 29.896-66.782 66.782-66.782h400.694v-133.568zM397.382 421.732c13.090 2.136 32.568 3.74 54.206 3.74 26.714 0 45.39-4.006 58.214-14.158 10.664-8.548 16.538-21.082 16.538-37.62 0-22.974-16.272-38.734-31.766-44.342v-0.778c12.534-5.096 19.478-17.096 24.022-33.658 5.59-20.278 11.198-43.788 14.67-50.712h-41.65c-2.94 5.076-7.19 19.768-12.534 41.918-4.81 22.438-12.534 28.56-29.096 28.85h-12.288v-70.768h-40.314v177.53zM437.698 344.308h16.026c20.302 0 32.298 10.15 32.298 25.912 0 16.538-11.198 24.822-29.896 25.088-9.882 0-15.492-0.778-18.432-1.336l0.002-49.664zM600.112 290.394l-12.822-46.192h-42.184l55.006 179.934h53.38l55.808-179.934h-43.788l-13.89 46.192h-51.51zM645.77 320.822l-11.222 38.178c-3.206 10.664-6.39 24.020-9.062 34.704h-0.552c-2.65-10.664-5.322-24.286-8.258-34.704l-10.686-38.178h39.778zM733.432 421.732c13.090 2.136 32.59 3.74 54.206 3.74 26.69 0 45.39-4.006 58.212-14.158 10.664-8.548 16.538-21.082 16.538-37.62 0-22.974-16.272-38.734-31.768-44.342v-0.778c12.534-5.096 19.48-17.096 24.020-33.658 5.59-20.278 11.198-43.788 14.67-50.712h-41.65c-2.938 5.076-7.192 19.768-12.534 41.918-4.808 22.438-12.534 28.56-29.118 28.85h-12.264v-70.768h-40.336l-0.002 177.53zM773.77 344.308h16.004c20.302 0 32.298 10.15 32.298 25.912 0 16.538-11.222 24.822-29.898 25.088-9.884 0-15.494-0.778-18.408-1.336l0.002-49.664z" />
<glyph unicode="&#xe03b;" glyph-name="uniE03B" horiz-adv-x="978" d="M912.098 514.782h-111.306l0.002 289.392-155.826 155.826h-578.784c-36.884 0-66.782-29.898-66.782-66.782v-890.434c0-36.888 29.896-66.782 66.782-66.782h667.826c36.864 0 66.782 29.898 66.782 66.782v133.566h111.306c36.864 0 66.782 29.898 66.782 66.782l0.002 244.87c0 36.888-29.898 66.782-66.784 66.782zM734.010 2.782h-667.826v890.438h534.26v-133.566h133.566v-244.868l-400.694-0.002c-36.888 0-66.782-29.896-66.782-66.782v-244.868c0-36.886 29.896-66.782 66.782-66.782h400.694v-133.568zM443.486 389.966h-48.33v34.192h138.282v-34.192h-49.13v-145.764h-40.826l0.002 145.764zM577.85 290.394l-12.822-46.192h-42.184l55.006 179.934h53.38l55.808-179.934h-43.788l-13.89 46.192h-51.51zM623.51 320.822l-11.222 38.178c-3.206 10.664-6.39 24.020-9.062 34.704h-0.554c-2.65-10.664-5.322-24.286-8.258-34.704l-10.686-38.178h39.78zM711.174 421.732c13.090 2.136 32.59 3.74 54.206 3.74 26.69 0 45.39-4.006 58.212-14.158 10.664-8.548 16.538-21.082 16.538-37.62 0-22.974-16.272-38.734-31.768-44.342v-0.778c12.534-5.096 19.48-17.096 24.020-33.658 5.59-20.278 11.198-43.788 14.67-50.712h-41.65c-2.938 5.076-7.192 19.768-12.534 41.918-4.808 22.438-12.534 28.56-29.118 28.85h-12.264v-70.768h-40.336l-0.002 177.53zM751.51 344.308h16.004c20.302 0 32.298 10.15 32.298 25.912 0 16.538-11.222 24.822-29.898 25.088-9.884 0-15.494-0.778-18.408-1.336l0.002-49.664z" />
<glyph unicode="&#xe5ff;" glyph-name="uniE602" d="M838.336 360.4c-42.64 0.432-93.712-3.264-149.184-11.2-25.408 14.592-52.256 30.624-73.504 50.464-53.888 50.336-99.072 120.256-127.12 198.608 1.904 7.52 3.744 14.848 5.44 22.256 7.808 35.072 13.376 150.976 13.376 150.976s-22.16-87.088-25.664-100.208c-2.24-8.336-5.056-17.248-8.272-26.512-17.008 59.808-25.664 117.792-25.664 161.76 0 12.432 1.072 36.56 4.592 55.68 1.728 13.648 6.688 20.72 11.824 24.16 10.112-2.464 21.456-18.016 33.312-44.032 10.16-22.496 9.536-48.576 9.536-64.688 0 0 10.912 39.968 8.4 63.568-1.52 14.176-15.040 50.624-43.68 50.176h-2.352l-12.752 0.208c-20.912 0-40.512-10.272-45.232-27.168-17.584-64.832 2.080-165.12 34.928-290.032l-9.952-24.176c-25.12-61.264-56.528-122.288-84.16-176.416-114.048-223.184-202.784-343.584-261.92-352.048l-0.256 2.448c-1.28 27.824 50.112 99.632 119.76 156.688 7.248 5.872 38.24 35.84 38.24 35.84s-41.84-22.096-51.216-27.792c-87.264-52.096-130.688-104.288-137.776-138.912-2.096-10.288-0.72-22.944 8.352-28.112l22.336-11.232c60.736-30.384 135.36 49.552 234.656 223.552 101.040 33.12 227.104 64.336 341.872 81.232 102.752-58.688 220.592-86.608 265.84-74.544 8.608 2.288 17.68 9.024 22.336 15.264 3.632 5.728 8.672 28.72 8.672 28.72s-8.496-11.632-15.488-15.056c-28.704-13.552-119.136 9.040-211.968 54.464 80.288 8.528 147.168 8.896 182.896-2.544 45.376-14.48 45.376-29.36 44.816-32.384 0.56 2.496 2.656 12.432 2.4 16.688-1.040 10.912-4.368 20.608-12.608 28.688-16.8 16.496-58.272 24.88-114.816 25.616zM333.552 255.584c17.184 30.56 35.776 63.824 54.864 99.712 36.864 69.744 59.232 123.584 78.048 174.224 29.632-59.632 70.56-116.32 124.192-161.744 11.984-10.112 24.688-19.68 37.76-28.752-97.44-18.080-199.776-43.552-294.864-83.44z" />
<glyph unicode="&#xe600;" glyph-name="uniE600" d="M801.408 657.472c33.936 20.832 56.368 49.264 67.408 85.392-33.024-17.472-65.904-29.536-98.72-36.144-29.536 31.744-66.944 47.872-111.744 47.872-43.776 0-80.784-15.328-111.008-45.28-30.032-30.096-45.168-66.688-45.168-109.376 0-13.008 1.648-24.576 4.88-34.416-129.152 4.432-236.112 58-320.352 161.152-14.272-25.232-21.408-50.944-21.408-77.52 0-54.64 23.040-97.952 69.056-129.728-26.256 2.208-49.376 8.848-69.056 19.728 0-39.008 11.488-71.616 34.448-100.288 23.056-28.368 52.672-46.496 88.848-54.208-13.12-3.376-26.96-4.976-41.136-4.976-13.088 0-22.384 1.12-27.888 3.504 9.648-31.808 27.888-57.6 54.224-77.312 26.256-19.808 56.432-30.32 90.352-31.216-55.952-43.872-119.888-65.632-192.272-65.632-17.712 0-30.272 0.256-37.856 1.632 71.248-46.288 150.608-69.248 238.368-69.248 89.856 0 169.232 22.752 238.32 68.288 69.088 45.28 120.064 101.12 152.848 166.88 32.88 65.712 49.216 134.080 49.216 205.456v19.68c31.808 23.952 57.568 50.896 77.248 80.672-28.544-12.32-58.080-20.688-88.608-24.912z" />
<glyph unicode="&#xe601;" glyph-name="uniE601" d="M531.040 856.128c-222.768 0-335.072-159.712-335.072-292.848 0-80.736 30.592-152.352 95.952-179.12 10.8-4.416 20.416-0.208 23.552 11.648 2.16 8.336 7.2 29.152 9.568 37.792 3.184 11.632 1.952 15.792-6.688 26.064-18.928 22.224-30.96 51.168-30.96 91.952 0 118.48 88.608 224.56 230.832 224.56 125.904 0 195.12-77.024 195.12-179.664 0-135.184-59.856-249.264-148.72-249.264-49.024 0-85.744 40.512-73.92 90.32 14.096 59.488 41.344 123.568 41.344 166.4 0 38.368-20.672 70.352-63.152 70.352-50.192 0-90.496-51.84-90.496-121.36 0-44.272 15.072-74.144 15.072-74.144s-51.376-217.44-60.32-255.504c-17.904-75.888-2.72-168.864-1.328-178.224 0.672-5.568 7.808-7.008 11.056-2.784 4.624 6.064 64.432 79.904 84.592 153.552 5.872 20.88 33.008 128.768 33.008 128.768 16.4-31.056 63.872-58.416 114.544-58.416 150.768 0 253.008 137.376 253.008 321.408-0.208 139.040-117.968 268.512-296.992 268.512z" />
<glyph unicode="&#xe602;" glyph-name="req-for-visit" d="M977.225 398.336l-201.106 208.494v137.435c0 17.152-13.385 31.049-29.952 31.049-16.53 0-29.842-13.897-29.842-31.049v-75.41l-142.007 147.054c-11.666 12.105-30.537 12.105-42.203 0l-201.509-208.859c17.189-11.264 31.049-27.355 39.79-46.482l182.821 189.586 381.696-395.63c5.851-6.071 13.495-9.179 21.138-9.179s15.397 3.035 21.175 9.179c11.666 12.105 11.666 31.744 0 43.813zM367.177 498.907l0.768-166.693c44.507-36.571 72.375-87.515 72.375-144.128 0-33.061-10.313-63.781-27.026-91.319l63.598-0.11c27.026 0 36.571 17.189 36.571 36.571v182.857c0 26.002 48.128 34.194 73.143 36.571 25.125-2.45 73.143-10.569 73.143-36.571v-182.857c0-21.943 12.069-36.571 36.571-36.571h146.286c39.826 0 73.143 31.854 73.143 73.143v146.286l-365.714 365.714-182.857-182.894zM271.616 353.975c25.966 17.371 43.227 48.018 43.227 82.834 0 54.272-41.691 98.304-93.074 98.304-51.419 0-93.111-44.032-93.111-98.304 0-34.853 17.335-65.499 43.264-82.834-77.202-22.967-133.851-97.865-133.851-186.77 0-52.919 92.087-69.961 182.857-70.583 92.891-0.658 184.576 16.384 184.576 70.583-0.037 88.905-56.722 163.803-133.888 186.77z" />
<glyph unicode="&#xe603;" glyph-name="uniE603" d="M882.672 493.728h-100.448v100.448c0 7.648-6.224 13.904-13.872 13.904h-28.608c-7.696 0-13.92-6.256-13.92-13.904v-100.448h-100.448c-7.648 0-13.888-6.24-13.888-13.92v-28.608c0-7.68 6.256-13.904 13.888-13.904h100.448v-100.464c0-7.68 6.224-13.904 13.92-13.904h28.608c7.664 0 13.872 6.224 13.872 13.904v100.48h100.448c7.648 0 13.888 6.224 13.888 13.904v28.608c0 7.68-6.24 13.904-13.888 13.904zM504.032 409.904c-25.28 17.904-48.272 44.176-48.656 52.24 0 14.688 1.312 21.696 34.256 47.376 42.592 33.344 66.064 77.168 66.064 123.504 0 42-12.848 79.312-34.688 105.52h16.976c3.504 0 6.944 1.088 9.712 3.136l47.28 34.256c5.872 4.224 8.336 11.712 6.096 18.576-2.256 6.848-8.592 11.52-15.808 11.52h-211.472c-23.12 0-46.64-4.080-69.696-12.016-77.056-26.56-130.96-92.24-130.96-159.648 0-95.504 73.984-167.888 172.896-170.16-1.936-7.584-2.928-15.024-2.928-22.336 0-14.72 3.728-28.656 11.408-42.128-0.896 0-1.744 0-2.72 0-94.272 0-179.36-46.256-211.664-115.088-8.416-17.888-12.704-36-12.704-53.856 0-17.376 4.448-34.112 13.216-49.808 20.304-36.336 63.888-64.496 122.832-79.376 30.4-7.68 63.088-11.616 97.024-11.616 30.496 0 59.584 3.936 86.448 11.712 83.808 24.336 138 86.032 138 157.248 0.032 68.32-21.936 109.248-80.912 150.944zM236.976 253.488c0 49.696 63.152 93.312 135.136 93.312h1.936c15.664-0.208 30.944-2.496 45.344-6.928 4.944-3.408 9.696-6.656 14.288-9.76 33.344-22.736 55.376-37.712 61.504-61.776 1.456-6.064 2.176-12.128 2.176-18 0-61.904-46.176-93.28-137.248-93.28-69.072-0.016-123.136 42.32-123.136 96.432zM302.464 723.184c11.248 12.848 25.984 19.648 42.528 19.648l1.872-0.032c46.736-1.376 91.456-53.472 99.664-116.112 4.624-35.056-3.168-68.048-20.816-88.144-11.28-12.88-25.808-19.664-43.008-19.664 0 0 0 0-0.032 0h-0.752c-45.76 1.408-91.456 55.472-99.632 118.032-4.592 34.976 2.768 66.416 20.176 86.272z" />
<glyph unicode="&#xe604;" glyph-name="uniE604" d="M584 544h144v-144h-144v-336h-144v336h-144v144h144v60.24c0 57.056 17.952 129.136 53.68 168.608 35.664 39.472 80.288 59.152 133.728 59.152h100.592v-144h-100.784c-23.888 0-43.216-19.312-43.216-43.12v-100.88z" />
<glyph unicode="&#xe605;" glyph-name="uniE605" d="M1024 960v-384l-138.26 138.26-212-212-107.48 107.48 212 212-138.26 138.26zM245.74 821.74l212-212-107.48-107.48-212 212-138.26-138.26v384h384zM885.74 181.74l138.26 138.26v-384h-384l138.26 138.26-212 212 107.48 107.48zM457.74 286.26l-212-212 138.26-138.26h-384v384l138.26-138.26 212 212z" />
<glyph unicode="&#xe606;" glyph-name="uniE606" d="M102.4 857.6v-819.2h819.2v819.2h-819.2zM251.342 112.87h-74.47v74.446h74.47v-74.444zM251.342 224.59h-74.47v74.446h74.47v-74.444zM251.342 336.256h-74.47v74.47h74.47v-74.47zM251.342 485.222h-74.47v74.47h74.47v-74.47zM251.342 596.914h-74.47v74.496h74.47v-74.496zM251.342 708.658h-74.47v74.496h74.47v-74.496zM698.188 112.87h-372.352v297.856h372.352v-297.856zM698.188 485.222h-372.352v297.906h372.352v-297.906zM847.104 112.87h-74.444v74.446h74.444v-74.444zM847.104 224.59h-74.444v74.446h74.444v-74.444zM847.104 336.256h-74.444v74.47h74.444v-74.47zM847.104 485.222h-74.444v74.47h74.444v-74.47zM847.104 596.914h-74.444v74.496h74.444v-74.496zM847.104 708.658h-74.444v74.496h74.444v-74.496z" />
<glyph unicode="&#xe607;" glyph-name="uniE607" d="M812.314 440.038l-268.34 199.322c-14.976 14.976-46.388 14.976-61.338 0l-260.658-199.322c-8.474 0-15.334-14.542-15.334-23.014v-260.686c0-42.318 34.33-76.646 76.672-76.646h138.010v268.338c0 21.198 17.152 38.35 38.348 38.35h114.994c21.198 0 38.35-17.152 38.35-38.35v-268.314h138.010c42.318 0 76.672 34.33 76.672 76.646v260.658c-0.026 8.474-6.886 23.014-15.386 23.014zM947.25 483.2l-127.258 98.892v103.296c0 12.724-10.292 22.99-23.014 22.99h-76.646c-12.698 0-22.99-10.266-22.99-22.99v-7.962l-173.62 134.938c-0.026 0-0.052 0-0.052 0.026-5.428 4.634-13.362 5.222-19.2 0.666l-422.964-330.42c-6.656-5.222-7.858-14.848-2.638-21.504l9.446-12.084c5.222-6.682 14.848-7.86 21.53-2.662l403.892 315.572 405.17-314.88c6.682-5.198 16.332-4.020 21.554 2.638l9.472 12.032c5.198 6.63 4.020 16.256-2.688 21.452z" />
<glyph unicode="&#xe608;" glyph-name="uniE608" d="M972.646 502.682l-135.424 107.29v112.076c0 13.798-10.982 24.934-24.5 24.934h-81.562c-13.518 0-24.474-11.136-24.474-24.934v-8.626l-184.78 146.406c-0.026 0-0.052 0-0.052 0.026-5.786 5.018-14.234 5.658-20.454 0.716l-450.098-358.502c-7.092-5.658-8.372-16.102-2.79-23.322l10.060-13.108c5.554-7.246 15.796-8.524 22.912-2.892l429.824 342.4 431.18-341.658c7.116-5.658 17.408-4.352 22.938 2.842l10.138 13.056c5.478 7.194 4.198 17.664-2.918 23.296zM543.566 672l-0.102 0.102c-15.948 16.256-49.382 16.256-65.28 0l-277.402-216.242c-9.010 0-16.306-15.77-16.306-24.986v-282.83c0-45.926 36.532-83.174 81.612-83.174h146.866v291.174c0 22.938 18.252 41.574 40.806 41.574h122.368c10.368 0 19.738-4.070 26.932-10.572l135.86 137.062-195.354 147.89zM763.826 64.896c45.030 0 81.614 37.248 81.614 83.15v101.554l-187.956-184.704h106.342zM509.362 221.798l120.934-120.96 203.392 203.392-120.934 120.934-203.392-203.366zM476.39 67.866l126.414 5.504-120.934 120.934-5.478-126.438zM894.182 447.182l-38.502 38.476c-22.758 22.784-59.648 22.784-82.458 0l-32.948-32.974 120.908-120.96 32.998 32.998c22.758 22.758 22.758 59.674 0 82.458z" />
<glyph unicode="&#xe609;" glyph-name="uniE609" d="M486.4 443.29v26.676c-44.082-11.418-76.8-51.122-76.8-98.766 0-56.55 45.85-102.4 102.4-102.4s102.4 45.85 102.4 102.4c0 21.734-6.886 41.804-18.432 58.368l-18.586-18.586c7.116-11.622 11.418-25.164 11.418-39.782 0-42.418-34.356-76.8-76.8-76.8-42.394 0-76.8 34.38-76.8 76.8 0 33.408 21.452 61.518 51.2 72.090zM720.102 604.902c6.99 5.682 13.338 12.006 18.996 18.994l3.302 3.302-0.462 0.154c16.128 21.426 26.062 47.77 26.062 76.646 0 70.682-57.294 128-128 128s-128-57.318-128-128v-281.6h25.6l182.502 182.502zM640 780.8c42.446 0 76.8-34.38 76.8-76.8s-34.356-76.8-76.8-76.8c-42.394 0-76.8 34.38-76.8 76.8s34.406 76.8 76.8 76.8zM768 627.2v-51.2c14.158 0 25.6-11.47 25.6-25.6v-358.4c0-14.158-11.442-25.6-25.6-25.6h-512c-14.132 0-25.6 11.442-25.6 25.6v358.4c0 14.13 11.468 25.6 25.6 25.6h230.4v51.2h-230.4c-42.394 0-76.8-34.382-76.8-76.8v-409.6c0-42.418 34.406-76.8 76.8-76.8h512c42.446 0 76.8 34.38 76.8 76.8v409.6c0 42.418-34.356 76.8-76.8 76.8zM486.4 548.352c-86.81-12.442-153.6-86.912-153.6-177.152 0-98.97 80.23-179.2 179.2-179.2 98.994 0 179.2 80.23 179.2 179.2 0 42.982-15.154 82.38-40.346 113.254l-18.278-18.278c20.634-26.164 33.024-59.086 33.024-94.976 0-84.812-68.762-153.6-153.6-153.6-84.812 0-153.6 68.788-153.6 153.6 0 76.082 55.398 139.086 128 151.296v25.856zM512 345.6c14.158 0 25.6 11.442 25.6 25.6s-11.442 25.6-25.6 25.6c-14.13 0-25.6-11.442-25.6-25.6s11.468-25.6 25.6-25.6z" />
<glyph unicode="&#xe60a;" glyph-name="uniE60A" d="M271.59 523.162c33.178 0 60.108 26.88 60.108 60.108 0 33.178-26.93 60.108-60.108 60.108-33.228 0-60.11-26.93-60.11-60.108 0.026-33.254 26.906-60.108 60.11-60.108zM842.598 252.698v480.794c0 33.178-26.932 60.11-60.11 60.11h-631.142c-33.178 0-60.11-26.932-60.11-60.11v-480.794c0-33.28 26.93-60.11 60.11-60.11h631.142c33.178 0 60.11 26.828 60.11 60.11zM151.348 733.49h631.142v-480.794h-631.142v480.794zM872.602 703.462v-540.954h-691.15c0-33.178 26.88-60.11 60.11-60.11h631.040c33.178 0 60.11 26.932 60.11 60.11v480.846c0 33.178-26.932 60.108-60.11 60.108zM512 402.894l-90.138 120.242-90.138-180.352-60.108 90.138-90.138-150.246h570.956l-150.194 330.598-90.24-210.382z" />
<glyph unicode="&#xe60b;" glyph-name="uniE60B" d="M678.4 396.8h-281.6v-25.6h281.6v25.6zM678.4 473.6h-281.6v-25.6h281.6v25.6zM678.4 320h-281.6v-25.6h281.6v25.6zM320 640v-38.4h358.4v38.4c0 21.222-17.202 38.4-38.4 38.4h-64v102.4c0 28.262-22.938 51.2-51.2 51.2h-51.2c-28.262 0-51.2-22.938-51.2-51.2v-102.4h-64c-21.222 0-38.4-17.178-38.4-38.4zM473.6 755.2h51.2v-51.2h-51.2v51.2zM678.4 243.2h-281.6v-25.6h281.6v25.6zM678.4 550.4h-281.6v-25.6h281.6v25.6zM345.6 473.6h-25.6v-25.6h25.6v25.6zM345.6 550.4h-25.6v-25.6h25.6v25.6zM345.6 243.2h-25.6v-25.6h25.6v25.6zM729.6 755.2h-128v-51.2h128v-614.4h-460.8v614.4h128v51.2h-128c-28.262 0-51.2-22.938-51.2-51.2v-614.4c0-28.262 22.938-51.2 51.2-51.2h460.8c28.262 0 51.2 22.938 51.2 51.2v614.4c0 28.262-22.938 51.2-51.2 51.2zM345.6 320h-25.6v-25.6h25.6v25.6zM320 140.8h25.6v25.6h-25.6v-25.6zM345.6 396.8h-25.6v-25.6h25.6v25.6zM396.8 140.8h281.6v25.6h-281.6v-25.6z" />
<glyph unicode="&#xe60c;" glyph-name="uniE60C" d="M140.8 345.6v-230.4h153.6c0 0 0 128 0 153.6s25.6 25.6 25.6 25.6 75.212 0 102.4 0 25.6-25.6 25.6-25.6v-153.6h153.6v179.2l-230.4 281.6-230.4-230.4zM958.336 582.758c-2.74 9.498-4.634 14.054-4.634 14.054-2.996 7.322-11.878 12.416-19.738 11.316l-31.206-4.454c-7.884-1.102-17.92 3.354-22.35 9.906l-19.174 24.038c-5.478 5.682-7.706 16.434-4.914 23.834l11.188 29.618c2.764 7.424-0.41 16.972-7.092 21.172l-25.804 14.208c-7.168 3.354-16.922 0.948-21.734-5.402l-18.97-25.266c-4.762-6.35-15.002-10.214-22.758-8.654l-30.566 3.276c-7.962 0.206-17.1 6.272-20.326 13.49l-13.056 28.8c-3.25 7.244-12.288 11.98-20.096 10.598 0 0-4.812-0.896-14.336-3.662-9.472-2.738-14.054-4.608-14.054-4.608-7.322-3.020-12.416-11.878-11.29-19.738l4.454-31.282c1.126-7.86-3.354-17.87-9.932-22.298l-24.014-19.174c-5.734-5.478-16.434-7.706-23.86-4.916l-29.594 11.162c-7.424 2.79-16.972-0.384-21.198-7.066l-14.182-25.83c-3.354-7.142-0.948-16.922 5.402-21.682l25.268-18.994c6.35-4.762 10.214-15.002 8.654-22.758l-3.302-30.618c-0.206-7.91-6.272-17.050-13.518-20.326l-28.8-12.978c-7.194-3.276-11.954-12.314-10.548-20.146 0 0 0.87-4.838 3.634-14.336s4.634-14.054 4.634-14.054c2.996-7.374 11.852-12.39 19.712-11.316l31.284 4.48c7.86 1.076 17.894-3.38 22.298-9.908l19.226-24.014c5.478-5.708 7.706-16.486 4.864-23.86l-11.136-29.594c-2.816-7.424-1.51-16.026 2.866-19.046 4.404-3.046 16.538-10.214 16.538-10.24 0.052-0.052 3.994-1.972 8.78-4.326 4.762-2.38 21.632-2.688 26.368 3.61l18.97 25.318c4.788 6.322 15.002 10.214 22.784 8.626l30.566-3.278c7.936-0.206 17.076-6.272 20.326-13.518l13.030-28.774c3.278-7.22 12.314-12.006 20.122-10.598 0 0 4.838 0.87 14.336 3.66 9.498 2.74 14.080 4.634 14.080 4.634 7.296 2.97 12.39 11.878 11.238 19.712l-4.428 31.308c-1.126 7.834 3.328 17.894 9.908 22.298l24.014 19.2c5.708 5.504 16.462 7.73 23.86 4.914l29.62-11.212c7.424-2.74 16.948 0.41 21.198 7.092l14.158 25.804c3.38 7.22 0.922 16.948-5.402 21.708l-25.294 18.996c-6.298 4.736-10.188 15.002-8.626 22.758l3.278 30.566c0.256 7.936 6.298 17.074 13.542 20.352l28.75 12.98c7.246 3.302 12.032 12.314 10.598 20.146 0-0.026-0.846 4.788-3.61 14.286zM753.202 463.104c-30.542-8.882-62.514 8.678-71.424 39.218-8.884 30.566 8.678 62.514 39.246 71.424 30.542 8.882 62.514-8.678 71.398-39.218s-8.678-62.542-39.22-71.424zM467.814 542.514c9.728-9.728 25.498-9.728 35.226 0l17.612 17.612c9.728 9.728 9.728 25.498 0 35.226l-132.506 132.506c-7.5 7.5-18.56 9.062-27.7 4.992-3.634-1.23-7.066-3.020-9.958-5.914l-293.99-293.99c-10.010-10.010-10.010-26.214 0-36.198l18.1-18.126c10.010-10.010 26.214-10.010 36.224 0l260.454 260.454 96.538-96.562z" />
<glyph unicode="&#xe60d;" glyph-name="uniE60D" d="M854.092 751.692c-89.958 90.036-235.852 90.036-325.786 0l-373.53-369.1c-69.862-69.862-69.862-183.552 0-253.39 69.862-69.888 183.552-69.888 253.362 0l373.53 369.1c49.946 49.996 49.946 131.020 0 181.018-49.996 49.946-131.046 49.946-180.992 0l-280.782-280.832c-10.010-10.010-10.010-26.138 0-36.198 10.010-10.010 26.19-10.010 36.198 0l280.782 280.832c29.952 29.926 78.644 29.926 108.596 0 29.952-29.952 29.952-78.668 0-108.62l-373.452-369.1c-49.998-49.996-130.996-49.996-180.992 0s-49.996 131.046 0 180.992l369.818 365.542c69.99 69.966 183.5 69.966 253.39 0 70.042-70.016 70.042-183.45 0.052-253.414l-277.12-277.222c-10.086-10.062-10.086-26.188 0-36.198 9.984-10.062 26.188-10.062 36.198 0l280.754 280.806c89.984 89.958 89.984 235.878-0.026 325.786z" />
<glyph unicode="&#xe60e;" glyph-name="uniE60E" d="M742.4 780.8h-460.8c-28.262 0-51.2-22.938-51.2-51.2v-563.2c0-28.262 22.938-51.2 51.2-51.2h460.8c28.262 0 51.2 22.938 51.2 51.2v563.2c0 28.262-22.938 51.2-51.2 51.2zM576 729.6c21.198 0 38.4-17.178 38.4-38.4s-17.202-38.4-38.4-38.4-38.4 17.178-38.4 38.4 17.202 38.4 38.4 38.4zM512 243.2c-98.97 0-179.2 80.23-179.2 179.2s80.23 179.2 179.2 179.2 179.2-80.23 179.2-179.2-80.23-179.2-179.2-179.2zM704 652.8c-21.198 0-38.4 17.178-38.4 38.4s17.202 38.4 38.4 38.4 38.4-17.178 38.4-38.4-17.202-38.4-38.4-38.4zM512 576c-84.812 0-153.6-68.788-153.6-153.6s68.788-153.6 153.6-153.6 153.6 68.788 153.6 153.6-68.788 153.6-153.6 153.6zM588.8 448c-46.414 0-29.594-25.6-76.8-25.6-48.794 0-28.8 25.6-76.8 25.6s-51.2-25.6-51.2-25.6c0 70.682 57.318 128 128 128 70.706 0 128-57.318 128-128 0 0-4.788 25.6-51.2 25.6z" />
<glyph unicode="&#xe60f;" glyph-name="uniE60F" d="M59.648 13.056l221.106 182.068v372.506l-221.106-182.068v-372.506zM507.546 389.222l-216.652 178.406v-372.506l216.654-178.432v372.53zM578.996 743.782c0-38.426-31.154-69.606-69.606-69.606-38.426 0-69.606 31.154-69.606 69.606s31.154 69.606 69.606 69.606c38.426-0.026 69.606-31.182 69.606-69.606zM632.524 674.176c11.852 20.48 18.662 44.238 18.662 69.606 0 76.852-62.31 139.188-139.188 139.188-76.85 0-139.188-62.31-139.188-139.188 0-33.818 12.058-64.794 32.102-88.908l107.212-154.676 108.75 156.928c3.918 4.89 7.5 10.060 10.726 15.462l1.126 1.586h-0.206zM517.966 17.946l213.274 175.616v372.532l-213.274-175.642v-372.506zM964.352 13.056v372.506l-223.718 184.218v-372.506l223.718-184.218z" />
<glyph unicode="&#xe610;" glyph-name="uniE610" d="M352 652.8v-38.4h358.4v38.4c0 21.198-17.202 38.4-38.4 38.4h-64v102.4c0 28.262-22.938 51.2-51.2 51.2h-51.2c-28.262 0-51.2-22.938-51.2-51.2v-102.4h-64c-21.198 0-38.4-17.202-38.4-38.4zM505.6 768h51.2v-51.2h-51.2v51.2zM761.6 563.2h51.2v153.6c0 28.262-22.938 51.2-51.2 51.2h-128v-51.2h128v-153.6zM761.6 179.2h-64l-38.4-51.2h102.4c28.262 0 51.2 22.938 51.2 51.2v153.6l-51.2-68.274v-85.326zM300.8 179.2v537.6h128v51.2h-128c-28.262 0-51.2-22.938-51.2-51.2v-537.6c0-28.262 22.938-51.2 51.2-51.2h204.8l-25.6 51.2h-179.2zM864 537.6c-193.586-52.146-268.238-250.932-270.924-275.2l-87.476 96-102.4-51.2c0 0 108.006-107.212 204.8-179.2 138.394 272 256 281.6 256 281.6s-0.102 47.438 0 128z" />
<glyph unicode="&#xe611;" glyph-name="Area" d="M272 208h480v-64l128 96-128 96v-64h-480v64l-128-96 128-96v64zM912 368v-256h-800v256h-64v-320h928v320h-64zM471.968 744.896c16.064 5.728 33.504 8.576 52.32 8.576 20.8 0 36.768-4.736 47.872-14.272 11.104-9.504 16.672-23.168 16.672-40.96 0-15.232-3.424-28.352-10.24-39.36-6.848-11.008-22.048-26.464-45.664-46.336-19.808-16.512-33.696-32.512-41.632-47.936-7.936-15.456-11.904-34.816-11.904-58.080v-20.32h58.272v14.272c0 17.152 3.136 30.784 9.376 40.96s18.592 22.976 36.992 38.432c21.632 17.984 36.832 32.608 45.664 43.808 8.8 11.2 15.392 23.008 19.776 35.392 4.352 12.32 6.528 26.432 6.528 42.304 0 35.776-11.392 63.808-34.176 84.128-22.816 20.352-53.632 30.496-92.48 30.496-46.016 0-89.12-11.968-129.344-35.872l24.96-55.872c15.264 8.032 30.944 14.912 47.008 20.64zM510.912 432.832c-29.152 0-43.712-16-43.712-47.968 0-15.424 3.744-27.424 11.296-36.032 7.52-8.576 18.336-12.832 32.416-12.832 14.048 0 24.896 4.416 32.576 13.184 7.616 8.768 11.424 20.672 11.424 35.68 0 15.264-3.776 27.072-11.296 35.392-7.552 8.384-18.432 12.576-32.704 12.576z" />
<glyph unicode="&#xe612;" glyph-name="Bathroom1" d="M634.982 696.474l25.254 45.23h91.14l27.55-45.23zM697.456 658.9h21.806v-50.504h-21.806v50.504zM631.201 661.129l20.305-7.963-18.44-47.021-20.305 7.963 18.44 47.021zM773.019 650.022l18.851 10.967 25.398-43.656-18.851-10.967-25.398 43.656zM842.268 957.182c-100.494 0-182.032-82.728-182.032-184.702v-30.776c0-17.030 13.544-30.774 30.32-30.774h30.328c16.78 0 30.368 13.744 30.368 30.774v30.776c0 51.012 40.79 92.334 91.016 92.334 50.308 0 91.104-41.32 91.104-92.334v-277.072h-110.044c-70.092-34.486-194.064-57.406-335.336-57.406s-265.244 22.92-335.334 57.406h-130.564l-1.368-92.372 2.138-61.55c0-122.862 71.12-228.608 173.746-277.976l-50.922-51.66c-11.862-12.028-11.862-31.518 0-43.506l21.462-21.784c11.862-12.026 31.020-12.026 42.922 0l87.282 88.596c9.562-0.906 19.206-1.562 29.012-1.562h394.516c0.246 0 0.49 0.086 0.656 0.086l80.062-81.17c11.042-11.244 28.928-11.244 40.010 0l20.026 20.27c10.996 11.16 10.996 29.342 0 40.542l-38.25 38.702c117.116 42.712 200.994 155.972 200.994 289.462v123.148c0 5.744 0 24.992 0 30.776v277.070c0.002 101.974-81.576 184.702-182.112 184.702z" />
<glyph unicode="&#xe613;" glyph-name="Bedroom2" d="M145.464 508.792c0 43.078 34.622 78.010 77.322 78.010h154.646c42.704 0 77.324-34.932 77.324-78.010 0-12.586-2.97-24.468-8.216-34.996h101.754c-5.246 10.528-8.216 22.408-8.216 34.996 0 43.078 34.62 78.010 77.324 78.010h154.644c42.702 0 77.322-34.932 77.322-78.010 0-12.586-2.97-24.468-8.216-34.996h72.21v193.724h-831.89v-193.724h72.208c-5.244 10.528-8.216 22.408-8.216 34.996zM830.44 457.672c-14.178-16.48-35.072-26.914-58.392-26.914h-154.644c-23.322 0-44.216 10.434-58.394 26.914h-123.18c-14.176-16.48-35.072-26.914-58.394-26.914h-154.646c-23.32 0-44.214 10.434-58.392 26.914h-162.914v-177.58h1023.864v177.58h-194.908zM1.484 199.394h63.992v-48.43h95.988v48.43h703.904v-48.43h95.988v48.43h63.992v48.432h-1023.864v-48.432zM913.364 726h-831.892v-49.586h831.89v49.586z" />
<glyph unicode="&#xe614;" glyph-name="Bedroom" d="M204.242 577.628h204.242c43.358 0 81.692-39.694 81.692-81.696h40.848c0 42.002 38.32 81.696 81.696 81.696h204.24c43.406 0 81.696-39.694 81.696-81.696h40.852v245.088c0 0-147.418 122.542-415.782 122.542-268.408 0-442.030-122.542-442.030-122.542v-245.088h40.846c0 42.002 38.318 81.696 81.7 81.696zM939.508 455.080h-857.812c-43.344 0-81.696-5.902-81.696-47.91v-74.628h1021.204v74.628c0 42.008-38.332 47.91-81.696 47.91zM0 209.99h81.696v-81.696h81.696v81.696h694.42v-81.696h81.696v81.696h81.696v81.698h-1021.204v-81.698zM440.5 507c0-13.254-10.746-24-24-24h-225.5c-13.254 0-24 10.746-24 24v18.5c0 13.254 10.746 24 24 24h225.5c13.254 0 24-10.746 24-24v-18.5zM853.48 507c0-13.254-10.746-24-24-24h-225.5c-13.256 0-24 10.746-24 24v18.5c0 13.254 10.744 24 24 24h225.5c13.254 0 24-10.746 24-24v-18.5z" />
<glyph unicode="&#xe615;" glyph-name="DinnerRoom" d="M280.394 319.158c91.468 0 165.62-33.238 165.62-74.246 0-41.004-74.15-74.246-165.62-74.246s-165.62 33.242-165.62 74.246c0.002 41.008 74.152 74.246 165.62 74.246zM803.846 287.262c49.448 0 89.532-19.108 89.532-45.838 0-26.728-40.084-48.398-89.532-48.398-49.444 0-89.528 21.67-89.528 48.398 0 26.73 40.084 45.838 89.528 45.838zM427.24 275.624c0 0 66.686-22.458 166.422-22.458 99.052 0 200.316 16.5 200.316 16.5v-60.878c0 0-99.74 24.18-199.308 24.18-99.22 0-167.43-18.782-167.43-18.782v61.438zM280.394 147.132c91.302 5.5 165.62-33.24 165.62-74.244 0-41.006-74.15-74.248-165.62-74.248-17.776 0 22.428 38.008 21.348 74.238-1.116 37.342-42.92 72.958-21.348 74.254zM803.846 115.236c49.448 0 89.532-19.108 89.532-45.838 0-26.728-40.084-48.398-89.532-48.398-49.444 0-89.528 21.67-89.528 48.398 0 26.73 40.084 45.838 89.528 45.838zM427.24 103.598c0 0 66.686-22.458 166.422-22.458 99.052 0 200.316 16.5 200.316 16.5v-60.878c0 0-99.74 24.18-199.308 24.18-99.22 0-167.43-18.782-167.43-18.782v61.438zM168.558 147.116h130.622c4.246 0 7.684-3.438 7.684-7.68v-5.122c0-4.24-3.438-7.68-7.684-7.68h-130.622c-4.242 0-7.684 3.44-7.684 7.68v5.122c0.002 4.242 3.442 7.68 7.684 7.68zM168.558 19.12h130.622c4.246 0 7.684-3.436 7.684-7.678v-5.122c0-4.242-3.438-7.68-7.684-7.68h-130.622c-4.242 0-7.684 3.438-7.684 7.68v5.122c0.002 4.242 3.442 7.678 7.684 7.678zM168.558 106.156h145.988c4.242 0 7.684-3.438 7.684-7.68v-5.12c0-4.242-3.442-7.682-7.684-7.682h-145.988c-4.242 0-7.684 3.44-7.684 7.682v5.12c0.002 4.242 3.442 7.68 7.684 7.68zM168.558 62.638h145.988c4.242 0 7.684-3.438 7.684-7.68v-5.122c0-4.242-3.442-7.68-7.684-7.68h-145.988c-4.242 0-7.684 3.438-7.684 7.68v5.122c0.002 4.244 3.442 7.68 7.684 7.68zM2.082 410.274h1021.918v-43.004h-1021.918v43.004zM534.458 912.696c0-14.331-11.644-25.948-26.008-25.948s-26.008 11.617-26.008 25.948c0 14.331 11.644 25.948 26.008 25.948s26.008-11.617 26.008-25.948zM508.45 871.484c-237.414 0-429.876-192.030-429.876-428.91 0-4.6 0.098-9.176 0.242-13.74h859.272c0.144 4.564 0.244 9.14 0.244 13.74-0.002 236.88-192.466 428.91-429.882 428.91zM366.614 486.048h-190.458c-0.114 3.526 0.324 7.848 0.324 11.4 0 182.98 148.628 331.316 331.968 331.316 2.234 0 4.446-0.124 6.668-0.168-84.916-58.914-144.732-189.856-148.502-342.548z" />
<glyph unicode="&#xe616;" glyph-name="DinnerRoom2" d="M902 263h-776c-30.058 21.474-53.020 48.094-70 74h-56v98h1024v-98h-50c-16.98-25.906-41.942-52.526-72-74zM168 285h698v-46h-698v46zM362.464 841c11.074 0 22.152 0 33.226 0 145.408-119.040-145.406-238.078 0-357.12-10.336-0.658-21.562-1.308-33.226 0-145.406 119.042 145.408 238.080 0 357.12zM508.156 841c11.074 0 22.15 0 33.226 0 145.408-119.040-145.406-238.078 0-357.12-10.936-0.846-21.96-1.158-33.226 0-145.408 119.042 145.406 238.080 0 357.12v0zM651.292 841c11.076 0 22.15 0 33.226 0 145.408-119.040-145.406-238.078 0-357.12-10.934-1.002-21.96-1.336-33.226 0-145.41 119.042 145.406 238.080 0 357.12v0z" />
<glyph unicode="&#xe617;" glyph-name="ExteraRoom" d="M16.548 893h992.898c9.14 0 16.548-7.412 16.548-16.554v-33.112c0-9.142-7.408-16.556-16.548-16.556h-992.898c-9.14 0-16.548 7.414-16.548 16.556v33.112c0 9.142 7.408 16.554 16.548 16.554zM132.384 98.332v761.558h761.224v-761.558h-761.224zM496.448 396.334h-66.192v66.222h66.192v264.89h-297.868v-596h297.868v264.888zM827.418 727.446h-264.774v-264.888h66.192v-66.222h-66.192v-264.888h264.774v595.998zM198.58 462.556l66.194-463.556-99.292 33.112-99.288-33.112 66.192 463.556h66.194zM827.418 462.556l-66.196-463.556 99.292 33.112 99.29-33.112-66.196 463.556h-66.19zM132.384 528.778h66.196l33.094 165.556 264.774 33.112h-364.064v-198.668zM893.61 528.778h-66.192l-33.096 165.556-264.776 33.112h364.062v-198.668z" />
<glyph unicode="&#xe618;" glyph-name="Facebook1" d="M617 742c0 26.182 19.752 48 46 48h114v168h-203.11c-91.864 0-166.89-82.362-166.89-174v-848h210v806zM303 628.148h480l-19.010-180.148h-460.99v180.148z" />
<glyph unicode="&#xe619;" glyph-name="Facebook2" d="M-0.5 960.5v-1024h1024v1024h-1024zM705.5 448.5h-130v-448h-182v448h-92v158h92v138c0 80.34 64.648 152 145.030 152h176.97v-148h-100c-22.966 0-40-19.046-40-42-0.416 0.454 0-100 0-100h146l-16-158z" />
<glyph unicode="&#xe61a;" glyph-name="Facebook3" d="M511.75 960c-282.908 0-512.25-229.342-512.25-512.25s229.342-512.25 512.25-512.25 512.25 229.342 512.25 512.25-229.342 512.25-512.25 512.25zM665.334 447.75h-102.918v-354.668h-144.084v354.668h-72.832v125.084h72.834v109.25c0 63.604 51.18 120.332 114.816 120.332h140.102v-117.166h-79.166c-18.184 0-31.668-15.078-31.668-33.25-0.328 0.36 0-79.166 0-79.166h115.582l-12.666-125.084z" />
<glyph unicode="&#xe61b;" glyph-name="Familyroom1" d="M243.802 318.224c-13.464 0-24.38-10.914-24.38-24.378h48.76c0 13.464-10.916 24.378-24.38 24.378zM972.002 466.996h-36.002c-49.71 0-53.998-40.286-53.998-89.996v-126h-342.002v107.998h306.004v126h35.998c49.708 0 90 40.288 90 89.998 0 49.708-40.292 89.998-90 89.998h-738.002c-49.708 0-90-40.292-90-89.998 0-49.71 40.292-89.998 90-89.998h36v-126h306.002v-107.998h-342.002v126c0 49.71-4.29 89.996-54 89.996h-36c-49.708 0-54-40.286-54-89.996v-305.994h90v54h846v-54h90v305.994c0 49.71-4.292 89.996-53.998 89.996zM144.25 562.022c-9.256 0-17.066 5.826-17.066 15.084 0 9.256 7.808 15.39 17.066 15.39h721.246c9.256 0 16.506-6.134 16.506-15.39 0-9.258-7.25-15.084-16.506-15.084h-721.246zM365.704 318.224c-13.464 0-24.38-10.914-24.38-24.378h48.758c0 13.464-10.914 24.378-24.378 24.378zM614.584 293.846h48.76c0 13.464-10.914 24.378-24.378 24.378s-24.382-10.914-24.382-24.378zM736.484 293.846h48.762c0 13.464-10.916 24.378-24.38 24.378s-24.382-10.914-24.382-24.378z" />
<glyph unicode="&#xe61c;" glyph-name="Familyroom2" d="M961 55h-82v552h-28v-552h-82c-4.85 0-8.532-4.518-8.532-9.296v-11.704c0-4.75 3.682-9 8.532-9h192c4.89 0 9.37 4.25 9.37 9v11.704c0 4.778-4.48 9.296-9.37 9.296zM763.464 870.708l-58.464-233.708h7l56.928 233.708zM828.402 870.708l-20.62-233.708h28.55l9.798 233.708zM802.67 870.708l-36.332-233.708h28.548l25.51 233.708zM776.936 870.708l-52.042-233.708h28.55l41.22 233.708zM905.606 870.708l26.508-233.708h28.548l-37.33 233.708zM931.338 870.708l42.218-233.708h28.55l-53.040 233.708zM964.484 870.708h-7.412l57.928-233.708h8zM854.136 870.708l-4.912-233.708h28.552l-5.91 233.708zM879.872 870.708l10.796-233.708h28.55l-21.618 233.708zM692 322h-40c-10.872 0-20-11.114-20-22v-236c0-10.874 9.128-18 20-18v-22h40v22c10.89 0 20 8.982 20 19.856v236.28c0 10.888-9.11 19.864-20 19.864zM60 322h-40c-10.88 0-20.004-9.428-20.004-20.314v-236.154c0-10.876 9.124-19.532 20.004-19.532v-22h38v22c10.88 0 22 9.126 22 20v234c0 10.886-9.12 22-20 22zM95.958 102.31c0-10.894 7.16-22.31 18.042-22.31h218c10.866 0 18 9.106 18 20v82h-254l-0.042-79.69zM332.65 398h-215.050c-10.87 0-21.6-9.138-21.6-20v-178h254v180c0 10.862-6.484 18-17.35 18zM144.65 285.936c-5.976 0-10.82 4.836-10.82 10.8s4.844 10.8 10.82 10.8 10.82-4.836 10.82-10.8-4.844-10.8-10.82-10.8zM223.096 285.936c-5.976 0-10.82 4.836-10.82 10.8s4.844 10.8 10.82 10.8c5.976 0 10.82-4.836 10.82-10.8s-4.844-10.8-10.82-10.8zM301.542 285.936c-5.976 0-10.82 4.836-10.82 10.8s4.844 10.8 10.82 10.8 10.82-4.836 10.82-10.8-4.846-10.8-10.82-10.8zM360.346 102.31c0-10.894 8.772-22.31 19.654-22.31h218c10.868 0 17.97 11.416 17.97 22.31l0.030 79.69h-256l0.346-79.69zM615.97 379.098c0 10.862-8.068 18.902-18.934 18.902h-215.050c-10.87 0-21.986-7.138-21.986-18v-180h256l-0.030 179.098zM409.038 285.936c-5.976 0-10.82 4.836-10.82 10.8s4.844 10.8 10.82 10.8 10.82-4.836 10.82-10.8-4.846-10.8-10.82-10.8zM487.482 285.936c-5.974 0-10.818 4.836-10.818 10.8s4.844 10.8 10.818 10.8c5.976 0 10.82-4.836 10.82-10.8s-4.844-10.8-10.82-10.8zM565.928 285.936c-5.974 0-10.818 4.836-10.818 10.8s4.844 10.8 10.818 10.8c5.976 0 10.82-4.836 10.82-10.8s-4.844-10.8-10.82-10.8z" />
<glyph unicode="&#xe61d;" glyph-name="GooglePlus1" d="M600 817l-62-46h-27.434c24.778-31.046 39.434-69.436 39.434-111 0-67.708-38.878-126.992-97.090-159.806-8.204-11.398-14.304-23.132-14.91-33.36-2-33.834 56-66.834 74-81.834s43.94-41.824 54-64c11.15-24.576 21.050-104.59 11.582-131.596-17.186-83.826-124.608-148.404-254.582-148.404-141.938 0-257 77.008-257 172s115.062 176 257 176c1.2 0 2.39-0.020 3.586-0.032-10.304 12.958-16.586 30.156-16.586 49.032 0 8.878 1.392 17.384 3.938 25.256-106.884 4.858-191.938 86.592-191.938 186.744 0 80.3 54.686 148.758 131.452 175.252 28.212 13.864 60.38 21.748 94.548 21.748 4.132 0 8.232-0.128 12.304-0.356 1.2 0.224 2.43 0.356 3.696 0.356h218c11.044 0 20-8.954 20-20l-2-10zM192 225c0-58.542 64.918-106 145-106s147 27.458 145 106c-1.49 58.524-64.918 106-145 106s-145-47.458-145-106zM290.32 771.054c-45.352-17.078-61.672-84.67-36.452-150.974 25.22-66.302 82.432-106.208 127.784-89.13s61.672 84.67 36.45 150.972c-25.22 66.304-82.43 106.21-127.782 89.132zM582 521h382v-76h-382v76zM812 673v-382h-76v382h76z" />
<glyph unicode="&#xe61e;" glyph-name="GooglePlus2" d="M389.344 527.978c41.714 15.708 56.726 77.882 33.528 138.87-23.198 60.986-75.822 97.692-117.536 81.984-41.716-15.708-56.728-77.882-33.528-138.87 23.196-60.986 75.82-97.69 117.536-81.984zM348.272 344.058c-73.662 0-133.374-43.65-133.374-97.5s59.712-97.502 133.374-97.502c73.662 0 135.212 25.256 133.374 97.502-1.37 53.83-59.712 97.5-133.374 97.5zM0 960v-1024h1024v1024h-1024zM569.564 213.816c-15.808-77.106-114.618-136.506-234.17-136.506-130.558 0-236.394 70.834-236.394 158.208 0 87.376 105.836 161.888 236.394 161.888 1.102 0 2.198-0.018 3.298-0.028-9.478 11.918-15.256 27.738-15.256 45.1 0 8.168 1.282 15.992 3.622 23.23-98.314 4.468-176.548 79.65-176.548 171.772 0 73.864 50.3 136.832 120.912 161.202 25.95 12.752 55.54 20.004 86.968 20.004 3.802 0 7.572-0.118 11.318-0.326 1.102 0.208 2.234 0.326 3.398 0.326h200.522c10.158 0 18.396-8.236 18.396-18.396l-1.84-9.198-57.030-42.312h-25.234c22.792-28.556 36.272-63.87 36.272-102.1 0-62.28-35.762-116.81-89.304-146.992-7.544-10.484-13.158-21.278-13.714-30.686-1.84-31.124 51.51-61.476 68.066-75.274s40.416-38.47 49.67-58.87c10.258-22.602 19.364-96.202 10.654-121.042zM925 448.92h-139.812v-141.654h-69.906v141.654h-141.652v69.906h141.652v139.812h69.906v-139.812h139.812v-69.906z" />
<glyph unicode="&#xe61f;" glyph-name="GooglePlus3" d="M446.43 521.238c34.542 13.008 46.974 64.5 27.764 115.008-19.208 50.508-62.788 80.908-97.332 67.898s-46.974-64.5-27.764-115.008c19.212-50.508 62.788-80.908 97.332-67.898zM412.418 368.918c-60.998 0-110.446-36.152-110.446-80.75 0-44.596 49.448-80.748 110.446-80.748s111.968 20.916 110.444 80.748c-1.134 44.582-49.446 80.75-110.444 80.75zM513 960c-282.218 0-511-228.782-511-511 0-282.216 228.782-511 511-511 282.216 0 511 228.784 511 511 0 282.218-228.784 511-511 511zM595.668 261.052c-13.090-63.856-94.912-113.052-193.914-113.052-108.112 0-195.754 58.662-195.754 131.028 0 72.364 87.642 134.074 195.754 134.074 0.914 0 1.822-0.016 2.732-0.024-7.85 9.872-12.634 22.972-12.634 37.352 0 6.762 1.062 13.242 3 19.238-81.414 3.702-146.198 65.966-146.198 142.26 0 61.172 41.652 113.322 100.126 133.506 21.49 10.56 45.992 16.566 72.018 16.566 3.148 0 6.27-0.098 9.372-0.27 0.914 0.17 1.852 0.27 2.816 0.27h166.048c8.414 0 15.234-6.822 15.234-15.236l-1.524-7.618-47.224-35.042h-20.896c18.874-23.652 30.038-52.896 30.038-84.558 0-51.578-29.616-96.742-73.954-121.738-6.248-8.684-10.896-17.622-11.358-25.414-1.524-25.774 42.654-50.914 56.366-62.34 13.71-11.428 33.466-31.862 41.13-48.754 8.494-18.722 16.034-79.676 8.822-100.248zM774 456v-118h-58v118h-116v58h116v116h58v-116h116v-58h-116z" />
<glyph unicode="&#xe620;" glyph-name="Kitchen2" d="M338.688 705.768h33.184v-264.666h-33.184v264.666zM338.688 474.186h398.24v-33.084h-398.24v33.084zM703.74 705.768h33.188v-264.666h-33.188v264.666zM421.656 689.228c0 0-140.702 5.074-159.834 82.708-19.134 77.636 26.304 157.698 95.654 169.828 69.352 12.13 203.27-24.26 203.27-24.26s47.828 36.39 107.612 36.39c59.786 0 160.224-48.522 167.396-109.174 7.176-60.654-11.956-89.766-59.784-121.306-47.828-31.542-122.010-34.186-122.010-34.186v33.084c0 0 55.1 1.28 105.516 37.326 35.16 25.136 53.086 34.312 43.824 78.466-7.466 35.594-58.762 75.43-116.154 82.708s-126.4-39.7-126.4-39.7-164.214 42.568-205.464 23.158c-44.726-21.044-66.376-50.67-66.376-99.25 0-66.328 132.75-82.708 132.75-82.708v-33.084zM454.84 623.062h33.186v-99.25h-33.186v99.25zM521.212 623.062h33.188v-99.25h-33.188v99.25zM587.586 623.062h33.19v-99.25h-33.19v99.25zM147.062-27.218h784v-32.782h-784v32.782zM535.542 326.358c-182.14 0-329.796-147.294-329.796-328.99 0-3.526 0.076-7.036 0.184-10.536h659.222c0.112 3.5 0.186 7.010 0.186 10.536 0 181.694-147.654 328.99-329.796 328.99zM426.584 31.32h-145.58c-0.086 2.704-0.144 5.416-0.144 8.14 0 140.35 114.024 254.128 254.682 254.128 1.716 0 3.406-0.096 5.114-0.13-65.148-45.184-111.18-145.018-114.072-262.138zM555.496 357.97c0-10.993-8.934-19.904-19.954-19.904s-19.954 8.911-19.954 19.904c0 10.993 8.934 19.904 19.954 19.904s19.954-8.911 19.954-19.904z" />
<glyph unicode="&#xe621;" glyph-name="Kitchen" d="M0 958v-256h802v256h-802zM164.25 775.5c-30.238 0-54.75 24.512-54.75 54.75s24.512 54.75 54.75 54.75 54.75-24.512 54.75-54.75-24.512-54.75-54.75-54.75zM310.25 775.5c-30.238 0-54.75 24.512-54.75 54.75s24.512 54.75 54.75 54.75 54.75-24.512 54.75-54.75-24.512-54.75-54.75-54.75zM492.75 775.5c-30.238 0-54.75 24.512-54.75 54.75s24.512 54.75 54.75 54.75c30.238 0 54.75-24.512 54.75-54.75s-24.512-54.75-54.75-54.75zM638.75 775.5c-30.238 0-54.75 24.512-54.75 54.75s24.512 54.75 54.75 54.75 54.75-24.512 54.75-54.75-24.512-54.75-54.75-54.75zM840 958h182v-256h-182v256zM840 666h182v-730h-182v730zM0 666v-730h802v730h-802zM694 46h-584v364h584v-364zM694 520h-584v36h584v-36zM130 380h10v-316h-10v316zM178 380h10v-316h-10v316zM228 380h10v-316h-10v316zM276 380h10v-316h-10v316zM326 380h10v-316h-10v316zM374 380h10v-316h-10v316zM424 380h10v-316h-10v316zM472 380h10v-316h-10v316zM522 380h10v-316h-10v316zM570 380h10v-316h-10v316zM620 380h10v-316h-10v316zM668 380h10v-316h-10v316zM572 840h138v-22h-138v22zM428 840h138v-22h-138v22zM248 840h138v-22h-138v22zM96 840h138v-22h-138v22z" />
<glyph unicode="&#xe622;" glyph-name="Livingroom1" d="M961 55h-82v552h-28v-552h-82c-4.85 0-8.532-4.518-8.532-9.296v-11.704c0-4.75 3.682-9 8.532-9h192c4.89 0 9.37 4.25 9.37 9v11.704c0 4.778-4.48 9.296-9.37 9.296zM647 467h-58c-16.074 0-30-15.876-30-32v-350c0-16.108 13.926-28 30-28v-32h58l-0.168 32.332c16.106 0 30.168 13.56 30.168 29.668v350c0 16.124-13.894 30-30 30zM89 467h-60c-16.088 0-27.818-14.542-27.818-30.668v-349.812c0-16.108 11.73-29.52 27.818-29.52v-32h58v32c16.088 0 32 13.892 32 30v348c0 16.124-13.912 32-30 32zM149 141c0-16.138 13.908-32 30-32h320c16.068 0 28 15.862 28 32v116h-378v-116zM763.464 870.708l-58.464-233.708h7l56.928 233.708zM828.402 870.708l-20.62-233.708h28.55l9.798 233.708zM802.67 870.708l-36.332-233.708h28.548l25.51 233.708zM776.936 870.708l-52.042-233.708h28.55l41.22 233.708zM905.606 870.708l26.508-233.708h28.548l-37.33 233.708zM931.338 870.708l42.218-233.708h28.55l-53.040 233.708zM964.484 870.708h-7.412l57.928-233.708h8zM854.136 870.708l-4.912-233.708h28.552l-5.91 233.708zM879.872 870.708l10.796-233.708h28.55l-21.618 233.708zM499 579h-318c-16.074 0-30-11.91-30-28v-264h376v264c0 16.090-11.932 28-28 28zM221 413c-8.836 0-16 7.164-16 16s7.164 16 16 16 16-7.164 16-16-7.164-16-16-16zM337 413c-8.836 0-16 7.164-16 16s7.164 16 16 16 16-7.164 16-16-7.164-16-16-16zM453 413c-8.836 0-16 7.164-16 16s7.164 16 16 16 16-7.164 16-16-7.164-16-16-16z" />
<glyph unicode="&#xe623;" glyph-name="Loundry" d="M513.666 613.126c-137.622 0-249.186-111.564-249.186-249.186s111.564-249.186 249.186-249.186 249.188 111.564 249.188 249.186c0 137.622-111.566 249.186-249.188 249.186zM513.666 128.708c-129.914 0-235.232 105.314-235.232 235.23s105.318 235.232 235.232 235.232c129.916 0 235.232-105.318 235.232-235.232s-105.316-235.23-235.232-235.23zM728.97 343.184c0-68.752-63.554-152.698-124.264-152.698-60.706 0-110.126 83.38-41.004 152.132 82.884 82.446-33.89 236.618-33.89 236.618s199.158 0.764 199.158-236.052zM994.098 958h-960.862c-16.516 0-29.902-13.388-29.902-29.902v-963.852c0-16.516 13.388-29.902 29.902-29.902h960.862c16.514 0 29.902 13.386 29.902 29.902v963.852c0 16.514-13.388 29.902-29.902 29.902zM68.732 908.912h194.6v-65.57h-194.6v65.57zM513.666 90.832c-150.834 0-273.108 122.274-273.108 273.108s122.274 273.108 273.108 273.108c150.834 0 273.11-122.274 273.11-273.108s-122.276-273.108-273.11-273.108zM844.586 844.372c-17.618 0-31.896 14.28-31.896 31.896s14.28 31.896 31.896 31.896 31.896-14.282 31.896-31.896-14.278-31.896-31.896-31.896zM922.332 844.372c-17.618 0-31.896 14.28-31.896 31.896s14.28 31.896 31.896 31.896 31.896-14.282 31.896-31.896-14.278-31.896-31.896-31.896z" />
<glyph unicode="&#xe624;" glyph-name="RSS1" d="M130.56 193.12c71.002 0 128.558-57.558 128.558-128.558 0-71.002-57.556-128.56-128.558-128.56-71.004-0.002-128.56 57.556-128.56 128.558 0 71 57.556 128.56 128.56 128.56zM836.648-60.5c0-1.756-0.024-3.508-0.034-5.262h189.352c0.010 1.754 0.034 3.506 0.034 5.262 0 563.606-456.894 1020.5-1020.5 1020.5-1.996 0-3.986-0.026-5.98-0.038v-189.35c1.994 0.014 3.984 0.038 5.98 0.038 459.032 0 831.148-372.118 831.148-831.15zM469.934-61.516c0-1.42-0.042-2.83-0.054-4.246h189.348c0.004 0.758 0.030 1.512 0.030 2.272 0 362.71-294.034 656.748-656.748 656.748-0.838 0-1.672-0.028-2.51-0.032v-187.38c0.84 0.004 1.672 0.032 2.514 0.032 258.15-0.002 467.42-209.26 467.42-467.394z" />
<glyph unicode="&#xe625;" glyph-name="RSS2" d="M3.5 772.412c-1.168 0-2.334-0.012-3.5-0.022v-177.376c0.17 0 0.34 0.006 0.51 0.006 362.712 0 656.748-294.038 656.748-656.748 0-0.76-0.026-1.514-0.030-2.272h177.386c0.010 1.754 0.034 3.506 0.034 5.262 0 459.030-372.116 831.15-831.148 831.15zM0.514 407.638c-0.172 0-0.342-0.004-0.514-0.006v-341.31c0 71 57.556 128.558 128.56 128.558 71.002 0 128.558-57.558 128.558-128.558 0-71.002-57.556-128.56-128.558-128.56-71.004 0-128.56 57.558-128.56 128.56v-130.322h467.88c0.014 1.416 0.052 2.826 0.052 4.246 0.002 258.132-209.268 467.392-467.418 467.392zM1024-64v5.262c0-1.756-0.024-3.508-0.034-5.262h0.034zM63.622 960c535.618-31.12 960.378-475.316 960.378-1018.738v1018.738h-960.378z" />
<glyph unicode="&#xe626;" glyph-name="RSS3" d="M130.56 193.12c71.002 0 128.558-57.558 128.558-128.558 0-71.002-57.556-128.56-128.558-128.56-71.004-0.002-128.56 57.556-128.56 128.558 0 71 57.556 128.56 128.56 128.56zM836.648 21.262c0-1.756-0.024-3.508-0.034-5.262 0 0 0-80 94.384-80 94.966 0 94.966 80 94.966 80 0.010 1.754 0.034 3.506 0.034 5.262 0.002 563.606-376.412 938.738-940.018 938.738-1.996 0-3.986-0.026-5.98-0.038 0 0-80 0-80-93.96 0-95.39 80-95.39 80-95.39 1.994 0.014 3.984 0.038 5.98 0.038 459.032 0 750.668-290.358 750.668-749.388zM469.934 20.246c0-1.42-0.042-2.83-0.054-4.246 0 0 6-80 94.12-80 95.228 0 95.228 80 95.228 80 0.004 0.758 0.030 1.512 0.030 2.272 0 362.71-210.034 574.986-572.748 574.986-0.838 0-1.672-0.028-2.51-0.032 0 0-84-0.014-84-91.226 0-96.124 84-96.154 84-96.154 0.84 0.004 1.672 0.032 2.514 0.032 258.15-0.002 383.42-127.5 383.42-385.632z" />
<glyph unicode="&#xe627;" glyph-name="Save1" d="M894 960h-894v-1024h1024v892l-130 132zM896 64h-768v768h768v-768zM192 896v-384h576v384h-576zM640 576h-128v256h128v-256z" />
<glyph unicode="&#xe628;" glyph-name="Save2" d="M0 132v-196h1023v196h-1023zM937.252-10c-22.028 0-39.884 17.908-39.884 40s17.858 40 39.884 40c22.026 0 39.882-17.908 39.882-40s-17.856-40-39.882-40zM201.41 326h622.174l199.416-174h-1021.006l199.416 174zM462.642 804v-220h-55.836l105.69-197.976 105.692 197.976h-53.844v220h-101.702z" />
<glyph unicode="&#xe629;" glyph-name="Studyroom1" d="M924.582 377.654h-822.104c-18.864 0-34.158-15.29-34.158-34.15v-138.87c0-18.86 19.732-32.612 38.596-32.612h821.038c18.866 0 30.26 13.418 30.26 32.278v139.192c-0.002 18.86-14.766 34.162-33.632 34.162zM28.466 470.992c-15.72 0-28.466-12.74-28.466-28.456v-478.078c0-15.718 12.746-28.458 28.466-28.458s28.466 12.74 28.466 28.458v478.078c0 15.716-12.744 28.456-28.466 28.456zM996.316 470.992c-15.72 0-28.466-12.74-28.466-28.458v-478.078c0-15.716 12.746-28.458 28.466-28.458 15.722 0 28.466 12.74 28.466 28.458v478.080c0.002 15.716-12.742 28.456-28.466 28.456zM925.936 472.598h-819.020c-18.866 0-36.32-14.618-36.32-33.476v-11.382c0-18.86 15.436-33.812 34.302-33.812h821.036c18.866 0 32.804 14.954 32.804 33.812v11.382c0.002 18.858-13.938 33.476-32.802 33.476zM691 509h-18.77c-1.642 5.134-3.776 12.918-3.776 18.726 0 10.378 5.634 21.274 5.634 21.274l-165.568-22.692-172.61 22.692c0 0 5.636-10.406 5.636-20.566 0-5.876-2.406-13.966-4.3-19.434h-18.246v-12h161.028c15.464-15.924 40.118-15.924 55.582 0h155.39v12zM485 504.58v4.42h-5.062c-0.098 0.102-0.206 0.186-0.302 0.288v-0.288h-136.636c0 0 4.182 12.718 4.182 19.638 0 7.256-5.636 14.69-5.636 14.69l165.48-22.692 161.43 22.692c0 0-5.636-7.784-5.636-15.196 0-6.738 4.182-19.13 4.182-19.13h-131.002v0.288c-0.098-0.102-0.204-0.186-0.3-0.288h-4.7l-0.056-4.18c-13.7-10.358-32.172-10.442-45.944-0.242z" />
<glyph unicode="&#xe62a;" glyph-name="Studyroom2" d="M275.556 639.594v-65.706h744.66v65.706h-744.66zM959.986 48.246h60.23v520.168h-60.23v-520.168zM565.756 568.414v-520.168h388.756v520.168h-388.756zM385.066-22.934h24.64v-41.066h52.016v41.066h487.314v-41.066h52.020v41.066h19.162v65.706h-635.152v-65.706zM1.786-64h35.59v763.824h-35.59v-763.824zM294.722-64h35.588v301.148h-35.588v-301.148zM42.85 242.624h287.46v38.328h-287.46v-38.328z" />
<glyph unicode="&#xe62b;" glyph-name="Studyroom3" d="M443 450v-48h544v48h-544zM943 18h44v380h-44v-380zM655 398v-380h284v380h-284zM523-34h18v-30h38v30h356v-30h38v30h14v48h-464v-48zM43 402h324v48h-324v-48zM43 794h324v48h-324v-48zM43-34h12v-30h38v30h226v-30h38v30h10v48h-324v-48zM87 398h-44v-380h44v380zM87 790h-44v-336h44v336zM323 454h44v336h-44v-336zM323 18h44v380h-44v-380zM93 604v-150h44v150h-44zM143 604v-150h44v150h-44zM234.838 607.138l-42.5-11.388 38.824-144.888 42.5 11.388-38.824 144.888z" />
<glyph unicode="&#xe62c;" glyph-name="Twitter1" d="M73.608 137.61c0 0 134-80 272-80s290.654 64.162 366 150c79 90 112.794 153.726 134.102 236.946 16.58 64.756 18.296 153.57 17.898 157.054 0 0 34 23 50 40s40 52 40 52-41-18-58-22-42-6-42-6 40 35 50 48 26 48 26 48-44-22-70-30-46-10-46-10-51.148 63.82-136 56c-97.666-9-129.782-56.556-156-98-31-49-14-124-14-124s-98.348 7.926-180 40c-104.012 40.854-198 148-198 148s-22.77-41.996-22-82c1-52 11.63-82.89 28-106 17-24 52-54 52-54s-22 2-40 6c-15.434 3.43-42 18-42 18s0.51-49.488 24-92c41.75-75.56 122-88 122-88s-14-4-44-6-38 2-38 2 17.978-59.592 60-88c52.2-35.288 108-38 108-38s-67.492-46.1-118-62c-54-17-146-16-146-16z" />
<glyph unicode="&#xe62d;" glyph-name="Twitter2" d="M0.804 960.97v-1024h1024v1024h-1024zM912.804 672.638c-16-17-50-40-50-40 0.398-3.484-1.32-92.298-17.898-157.054-21.308-83.218-55.102-146.946-134.102-236.946-75.348-85.838-228-150-366-150s-272 80-272 80 92-1 146 16c50.508 15.9 118 62 118 62s-55.8 2.712-108 38c-42.022 28.408-60 88-60 88s8-4 38-2 44 6 44 6-80.25 12.44-122 88c-23.49 42.512-24 92-24 92s26.566-14.57 42-18c18-4 40-6 40-6s-35 30-52 54c-16.37 23.11-27 54-28 106-0.77 40.004 22 82 22 82s93.988-107.146 198-148c81.652-32.074 180-40 180-40s-17 75 14 124c26.218 41.444 58.332 89 156 98 84.852 7.82 136-56 136-56s20 2 46 10 70 30 70 30-16-35-26-48-50-48-50-48 25 2 42 6 58 22 58 22-24-35-40-52z" />
<glyph unicode="&#xe62e;" glyph-name="Twitter3" d="M512.484 960.97c-283.036 0-512.484-229.448-512.484-512.486 0-283.036 229.448-512.484 512.484-512.484s512.484 229.448 512.484 512.484c0 283.038-229.446 512.486-512.484 512.486zM819.206 619.994c-12.27-13.036-38.34-30.672-38.34-30.672 0.304-2.672-1.014-70.776-13.724-120.43-16.34-63.814-42.252-112.678-102.83-181.69-57.776-65.82-174.83-115.020-280.648-115.020s-208.572 61.344-208.572 61.344 70.546-0.768 111.954 12.27c38.728 12.192 90.482 47.542 90.482 47.542s-42.788 2.080-82.814 29.138c-32.222 21.784-46.008 67.478-46.008 67.478s6.134-3.068 29.138-1.534c23.004 1.534 33.738 4.6 33.738 4.6s-61.536 9.54-93.548 67.48c-18.012 32.598-18.404 70.544-18.404 70.544s20.374-11.172 32.208-13.8c13.802-3.068 30.672-4.602 30.672-4.602s-26.838 23.004-39.874 41.406c-12.552 17.72-20.706 41.408-21.47 81.282-0.59 30.676 16.87 62.878 16.87 62.878s72.070-82.16 151.826-113.486c62.612-24.592 138.026-30.672 138.026-30.672s-13.038 57.51 10.734 95.084c20.106 31.778 44.728 68.246 119.622 75.146 65.064 5.996 104.286-42.942 104.286-42.942s15.336 1.534 35.272 7.668c19.938 6.134 53.678 23.004 53.678 23.004s-12.27-26.838-19.938-36.806c-7.668-9.968-38.34-36.806-38.34-36.806s19.17 1.534 32.206 4.6c13.036 3.068 44.474 16.87 44.474 16.87s-18.408-26.838-30.676-39.874z" />
<glyph unicode="&#xe62f;" glyph-name="bedroom2" d="M240 160h240v96h-240v-96zM366 231.008c11.040 0 20-8.96 20-20s-8.96-20-20-20-20 8.96-20 20 8.96 20 20 20zM240 320h240v96h-240v-96zM366 391.008c11.040 0 20-8.96 20-20s-8.96-20-20-20-20 8.96-20 20 8.96 20 20 20zM560 160h240v640h-240v-640zM606 519.008c11.040 0 20-8.96 20-20s-8.96-20-20-20-20 8.96-20 20 8.96 20 20 20zM240 480h240v320h-240v-320zM430 647.008c11.040 0 20-8.96 20-20s-8.96-20-20-20-20 8.96-20 20 8.96 20 20 20zM160 128v-96h48v48h288v-48h48v48h288v-48h48v832h-720v-736zM544 816h272v-672h-272v672zM224 816h272v-352h-272v352zM224 432h272v-128h-272v128zM224 272h272v-128h-272v128zM160 880h720l32 32h-784z" />
<glyph unicode="&#xe630;" glyph-name="bedroom4" d="M800 752h-240v-640h240v640zM606.4 431.2c-11.2 0-20 8.8-20 20s8.8 20 20 20 20-8.8 20-20c-0.8-11.2-9.6-20-20-20zM880-16v832h-720v-832h48v48h288v-48h48v48h288v-48h48zM496 96h-272v672h272v-672zM816 96h-272v672h272v-672zM880 832l32 32h-784l32-32z" />
<glyph unicode="&#xe631;" glyph-name="big23" d="M477.538 452.51c0-26.515-21.495-48.010-48.010-48.010s-48.010 21.495-48.010 48.010c0 26.515 21.495 48.010 48.010 48.010s48.010-21.495 48.010-48.010zM654.769 452.51c0-26.515-21.495-48.010-48.010-48.010s-48.010 21.495-48.010 48.010c0 26.515 21.495 48.010 48.010 48.010s48.010-21.495 48.010-48.010zM906.752 884.519h-779.973c-26.506 0-48.010-21.504-48.010-48.010v-2.422c0-11.697 4.194-22.41 11.146-30.72 4.254-5.081 9.078-10.929 13.529-17.31 7.956-11.402 14.71-24.596 14.71-38.518v-749.174c0-10.89 22.469-19.692 49.231-19.692s49.231 8.802 49.231 19.692v59.077c0 21.74 17.644 39.385 39.385 39.385h531.692c21.74 0 39.385-17.644 39.385-39.385v-59.077c0-10.89 22.469-19.692 49.231-19.692s49.231 8.802 49.231 19.692v757.74c0 10.082 1.93 20.519 4.529 29.952 4.45 6.4 9.295 12.249 13.529 17.31 6.951 8.31 11.146 19.023 11.146 30.72v2.422c0.020 26.506-21.484 48.010-47.99 48.010zM492.308 195.289c0-21.76-17.644-39.385-39.385-39.385h-236.308c-21.74 0-39.385 17.625-39.385 39.385v531.692c0 21.74 17.644 39.385 39.385 39.385h236.308c21.74 0 39.385-17.644 39.385-39.385v-531.692zM866.462 195.289c0-21.76-17.644-39.385-39.385-39.385h-236.308c-21.74 0-39.385 17.625-39.385 39.385v531.692c0 21.74 17.644 39.385 39.385 39.385h236.308c21.74 0 39.385-17.644 39.385-39.385v-531.692z" />
<glyph unicode="&#xe632;" glyph-name="shelf1" d="M179.497 864.113v-832.225h58.337v180.173h552.223v-180.183h54.436v832.236h-664.996zM790.057 243.18h-163.338v122.501h-44.718v-122.511h-17.5v122.511h-44.718v-122.511h-15.565v122.511h-44.718v-122.511h-18.483v122.511h-44.718v-122.511h-17.5v122.511h-44.718v-122.511h-15.565v122.511h-44.718v-122.511h-35.963v177.613h552.223v-177.603zM790.057 451.881h-31.539l9.359 2.13-28.703 126.413-43.602-9.902 26.921-118.641h-26.921v125.204h-44.718v-125.204h-208.855v125.757h-44.718v-125.747h-17.5v125.747h-44.718v-125.747h-15.565v125.747h-44.718v-125.747h-36.936v165.919h552.223v-165.929zM790.057 648.929h-18.463v129.628h-44.739v-129.628h-17.5v129.628h-44.718v-129.628h-15.565v129.628h-44.708v-129.628h-221.983l28.877 6.564-28.703 126.423-43.612-9.923 27.945-123.075h-27.945v129.638h-44.718v-129.628h-56.381v184.074h552.223v-184.074z" />
<glyph unicode="&#xe633;" glyph-name="wardrobe" d="M945.231 960h-866.462c-21.701 0-39.385-17.684-39.385-39.385v-39.385c0-21.701 17.684-39.385 39.385-39.385v-866.462c0-21.701 17.684-39.385 39.385-39.385h39.385c0 0 39.385 0.551 39.385 39.385s0 39.385 0 39.385c0 21.701 17.684 39.385 39.385 39.385h551.385c21.701 0 39.385-17.684 39.385-39.385 0 0 0-0.433 0-39.385s39.385-39.385 39.385-39.385h39.385c21.701 0 39.385 17.684 39.385 39.385v866.462c21.701 0 39.385 17.684 39.385 39.385v39.385c0 21.701-17.684 39.385-39.385 39.385zM472.615 841.846v-708.923h-315.077v708.923h315.077zM866.462 132.923h-315.077v708.923h315.077v-708.923zM630.154 369.231c21.78 0 39.385 17.605 39.385 39.385v78.769c0 21.78-17.605 39.385-39.385 39.385s-39.385-17.605-39.385-39.385v-78.769c0-21.78 17.605-39.385 39.385-39.385zM393.846 369.231c21.78 0 39.385 17.605 39.385 39.385v78.769c0 21.78-17.605 39.385-39.385 39.385s-39.385-17.605-39.385-39.385v-78.769c0-21.78 17.605-39.385 39.385-39.385z" />
<glyph unicode="&#xe634;" glyph-name="wardrobe2" d="M486.592 700.981h-277.835v-612.629h277.835v612.629zM446.464 394.667h-33.504v153.163h33.504v-153.163zM815.243 700.981h-277.835v-612.629h277.824v612.629zM603.808 394.667h-33.504v153.163h33.504v-153.163zM20.363 910.219v-124.427h90.112v-800.011h800.395v800.011h92.779v124.427h-983.285zM853.429 43.211h-685.515v708.341h685.525v-708.341z" />
<glyph unicode="&#xe635;" glyph-name="office2" d="M577.248 488.864h-577.248v-64.384h51.456v-488.48h425.408v488.48h100.384zM812.768 455.136c110.048 0 193.056 24.224 193.056 56.352 0 70.080 0 149.44-24.544 210.912-27.712 69.536-82.848 103.328-168.544 103.328-193.024 0-193.024-174.24-193.024-314.24-0.032-32.16 82.944-56.352 193.056-56.352zM782.56 433.984h70.464v-14.080h-70.464v14.080zM782.56 405.824h70.464v-14.144h-70.464v14.144zM782.56 377.568h70.464v-14.048h-70.464v14.048zM972.576 354.72c-17.056 0-37.056-2.016-60.256-4.288-28.896-2.88-61.6-6.176-96.32-6.176-36.832 0-71.232 4.64-101.536 8.704-23.488 3.136-43.808 5.856-60.672 5.856-33.376 0-45.824-10.944-45.824-40.48 0-19.424 79.136-46.56 208-46.56 128.896 0 208 27.136 208 46.56 0.032 26.528-13.888 36.384-51.392 36.384zM667.072-36.288c0-12.901-10.272-23.36-22.944-23.36s-22.944 10.459-22.944 23.36c0 12.901 10.272 23.36 22.944 23.36s22.944-10.459 22.944-23.36zM980.608 1.152c4.32 0 8.384-0.896 12.256-2.272-6.176 77.536-92.384 87.104-139.808 86.368-5.184-0.096-9.984-0.32-14.080-0.576v45.28c-7.616-0.16-15.264-0.288-22.944-0.288-6.464 0-12.896 0.064-19.36 0.224v-46.016c-3.392 0.32-8.192 0.704-14.048 1.024-43.52 2.144-144.032-2.048-150.688-86.016 3.84 1.376 7.968 2.272 12.256 2.272 6.56 0 12.608-1.888 17.952-4.896 0.928 21.664 17.312 60.736 120.512 65.824 4.576 0.256 9.248 0.384 14.048 0.48v-67.808c6.176 4.032 13.472 6.432 21.312 6.432 7.712 0 14.944-2.368 20.992-6.304v67.392c4.896-0.224 9.6-0.512 14.080-0.832 93.472-7.232 108.672-44.256 109.568-65.12 5.28 2.976 11.36 4.832 17.952 4.832zM1003.488-36.288c0-12.901-10.244-23.36-22.88-23.36s-22.88 10.459-22.88 23.36c0 12.901 10.244 23.36 22.88 23.36s22.88-10.459 22.88-23.36zM843.008-38.464c0-14.103-11.218-25.536-25.056-25.536s-25.056 11.433-25.056 25.536c0 14.103 11.218 25.536 25.056 25.536s25.056-11.433 25.056-25.536zM800 256h32v-128h-32v128z" />
<glyph unicode="&#xe636;" glyph-name="office3" d="M108.888 467.785v-186.988h304.223v186.988h-304.223zM265.334 335.963c-20.5 0-37.111 16.694-37.111 37.253 0 20.572 16.611 37.252 37.111 37.252s37.111-16.678 37.111-37.252c0-20.559-16.611-37.253-37.111-37.253zM1024 102.4h-1024v146.164h1024v-146.164zM596.861 684.938c0 60.033 47.999 108.662 107.223 108.662s107.278-48.627 107.278-108.662c0-60.046-48.055-108.648-107.278-108.648s-107.223 48.602-107.223 108.648zM490.668 280.797c7.917 113.807 36.333 191.951 87.25 237.627 10.804 9.732 22.25 18.633 34.693 26.002 7.112 4.204 14.666 7.593 22.387 10.376 18.89 6.851 39.057 10.099 59.085 10.788l-33.5-284.794h-55.807c2.834 65.080 5.834 126.717 7.584 162.098-24.557-33.917-40.195-89.1-45.916-162.098h-75.776zM744.111 280.797l-26.751 284.372c18.363-1.266 36.723-4.685 54.14-10.815 18.779-6.582 34.972-17.044 50.555-29.292 56.835-44.538 87.863-126.958 93.029-244.266h-75.584c-3.611 72.928-18.554 127.926-43.722 162.042 3.195-39.628 8.224-105.257 11.306-162.042h-62.973z" />
<glyph unicode="&#xe637;" glyph-name="office" d="M609.152 622.080h-609.152v-68.096h54.304v-617.984h448.928v617.984h105.92zM1000.96 445.024l23.040 237.632h-73.408l-22.944-237.632c-5.504-173.664-111.52-166.016-158.368-168.288l-128.672 0.128v-73.472h124.128c1.024-0.032 2.496-0.16 4.224-0.192v-178.464h-43.744c-48.864 0-88.64-39.808-88.64-88.736h48.928c0 21.952 17.76 39.776 39.68 39.776h160.608c21.92 0 39.776-17.856 39.776-39.776h48.864c0 48.896-39.776 88.736-88.672 88.736h-43.648v186.592c116.256 5.344 144.896 130.72 158.848 233.696z" />
<glyph unicode="&#xe638;" glyph-name="room" d="M99.264 362.656h-37.248v170.624c0 95.712 106.272 170.72 241.984 170.72s241.952-74.976 241.952-170.72v-170.624h-37.216v170.624c0 75.232-89.952 134.144-204.736 134.144s-204.736-58.912-204.736-134.144v-170.624zM24.8 313.888h558.4v-377.888h-37.248v219.424h-483.936v-219.424h-37.216v377.888zM74.432 179.808h459.104v97.504h-459.104v-97.504zM86.848 265.12h434.272v-73.152h-434.272v73.152zM280.736 230.88c0-8.416 6.944-15.328 15.52-15.328s15.52 6.912 15.52 15.328-6.976 15.2-15.52 15.2c-8.576 0-15.52-6.784-15.52-15.2zM558.368 350.432h-558.368l24.8-24.416h558.4l24.8 24.416h-49.632zM340.128 483.488c3.744 3.392-12.832 26.848-37.056 52.256-24.224 25.44-46.912 43.264-50.656 39.84-3.744-3.456 12.832-26.88 37.056-52.288 24.224-25.44 46.912-43.264 50.656-39.808zM227.584 539.008c-3.744-3.456 21.728-36.128 56.832-73.056 35.136-36.864 66.656-64 70.4-60.544 3.744 3.424-21.696 36.16-56.8 73.024-35.136 36.96-66.656 64.032-70.432 60.576zM757.28 218.24h-85.28v-282.24h49.184l22.304 174.72h208.736l15.776-174.72h56v282.24h-81.472zM996.896 245.088v362.912h-34.208l-1.248-26.88h-227.456l-1.888 26.88h-33.024v-362.912h58.016l-8.352 120.992h202.368l-5.856-120.992h51.648zM746.944 392.96l-1.888 26.88h208.608l-1.248-26.88h-205.472z" />
</font>
</defs>
</svg>
